Results 1 to 1 of 1
  1. #1
    Super Member www.desirulez.net
    Join Date
    Apr 2013
    Posts
    211

    Arrow I. Me Aur Main (2013)-DVDRip - XviD - 1CDRip -E Sub-By Kartik [ExD ExclusivE] 590MB

    Follow us on Social Media





    I. Me Aur Main (2013)-DVDRip - XviD - 1CDRip -E Sub-By Kartik [ExD ExclusivE] 590MB



    MEDIA-INFO
    Code:
    Rip Information
    
    Format                                   : AVI
    Format/Info                              : Audio Video Interleave
    File size                                : 589 MiB
    Duration                                 : 1h 45mn
    Overall bit rate                         : 784 Kbps
    Video
    
    Format                                   : MPEG-4 Visual
    Format profile                           : Advanced [email protected]
    Format settings, BVOP                    : 3
    Format settings, QPel                    : No
    Format settings, GMC                     : No warppoints
    Format settings, Matrix                  : Default (MPEG)
    Codec ID                                 : XVID
    Codec ID/Hint                            : XviD
    Duration                                 : 1h 45mn
    Bit rate                                 : 648 Kbps
    Width                                    : 688 pixels
    Height                                   : 288 pixels
    Display aspect ratio                     : 2.40:1
    Frame rate                               : 23.976 fps
    Color space                              : YUV
    Chroma subsampling                       : 4:2:0
    Bit depth                                : 8 bits
    Scan type                                : Progressive
    Compression mode                         : Lossy
    Bits/(Pixel*Frame)                       : 0.136
    Stream size                              : 487 MiB (83%)
    Writing library                          : XviD 1.2.1 (UTC 2008-12-04)
    Audio
    
    Format                                   : AC-3
    Format/Info                              : Audio Coding 3
    Mode extension                           : CM (complete main)
    Format settings, Endianness              : Big
    Codec ID                                 : 2000
    Duration                                 : 1h 45mn
    Bit rate mode                            : Constant
    Bit rate                                 : 128 Kbps
    Channel(s)                               : 6 channels
    Channel positions                        : Front: L C R, Side: L R, LFE
    Sampling rate                            : 48.0 KHz
    Bit depth                                : 16 bits
    Compression mode                         : Lossy
    Stream size                              : 96.2 MiB (16%)
    Alignment                                : Aligned on interleaves
    Interleave, duration                     : 64 ms (1.53 video frames)
    Interleave, preload duration             : 512 ms
    Title                                    : [email protected]
    SCREENSHOTS











    SINGLE DIRECT FAST LINKS
    Code:
    http://rapidgator.net/file/6990fe7278cf0c203a88ea0f15cc4801/I_Me_Aur_Main_2013_DVDRip_XviD_1CDRip_ESub_ExD_590MB.avi.html
    
    http://ul.to/3ct6r2cc
    SINGLE RESUME FAST LINKS
    Code:
    http://clz.to/emt3j2od
    
    http://www.filegag.com/81b8b292wrj3
    
    http://speedshare.eu/cdadydnudgui.html

 

 

Posting Permissions

  • You may not post new threads
  • You may not post replies
  • You may not post attachments
  • You may not edit your posts
  •