Results 1 to 1 of 1
  1. #1

    Cool Ek Thi Daayan (2013) - Untouched - SCAM - MPEG - DDD

    Follow us on Social Media







    General
    Format : MPEG-PS
    File size : 751 MiB
    Duration : 2h 0mn
    Overall bit rate : 869 Kbps

    Video
    ID : 224 (0xE0)
    Format : MPEG Video
    Format version : Version 2
    Format settings, BVOP : Yes
    Format settings, Matrix : Custom
    Format settings, GOP : Variable
    Duration : 2h 0mn
    Bit rate : 788 Kbps
    Maximum bit rate : 1 150 Kbps
    Width : 352 pixels
    Height : 288 pixels
    Display aspect ratio : 1.222
    Frame rate : 25.000 fps
    Standard : PAL
    Color space : YUV
    Bit depth : 8 bits
    Scan type : Progressive
    Compression mode : Lossy
    Bits/(Pixel*Frame) : 0.311
    Stream size : 681 MiB (91%)

    Audio
    ID : 192 (0xC0)
    Format : MPEG Audio
    Format version : Version 1
    Format profile : Layer 2
    Duration : 2h 0mn
    Bit rate mode : Constant
    Bit rate : 64.0 Kbps
    Channel(s) : 2 channels
    Sampling rate : 48.0 KHz
    Compression mode : Lossy
    Stream size : 55.3 MiB (7%)


    Code:
    http://rapidgator.net/file/2f4760e62e7fabdb5037f46565560108/'Ek_Thi_Daayan'2013-_SCam_Rip_-_MPEG.VOB.html
    
    http://ul.to/vdnjbw5l
    
    http://ultramegabit.com/file/details/Th1nF7DDKfE
    
    http://www.filegag.com/llf02yjbzvi0

 

 

Posting Permissions

  • You may not post new threads
  • You may not post replies
  • You may not post attachments
  • You may not edit your posts
  •