Results 1 to 1 of 1
  1. #1
    Hot Member www.desirulez.net
    Join Date
    Feb 2013
    Posts
    1,015

    Thumbs up Commando (2013) 1GB XViD 6Chnls ESubs{Team ExD}

    Follow us on Social Media










    [ NFO ]

    Format : AVI
    Format/Info : Audio Video Interleave
    File size : 1.00 GiB
    Duration : 1h 58mn
    Overall bit rate : 1 204 Kbps
    Writing application : VirtualDubMod 1.5.10.2 (build 2542/release)
    Writing library : VirtualDubMod build 2542/release

    Video
    ID : 0
    Format : MPEG-4 Visual
    Format profile : Advanced [email protected]
    Format settings, BVOP : 2
    Format settings, QPel : Yes
    Format settings, GMC : No warppoints
    Format settings, Matrix : Custom
    Codec ID : XVID
    Codec ID/Hint : XviD
    Duration : 1h 58mn
    Bit rate : 1 003 Kbps
    Width : 656 pixels
    Height : 320 pixels
    Display aspect ratio : 2.050
    Frame rate : 23.976 fps
    Color space : YUV
    Chroma subsampling : 4:2:0
    Bit depth : 8 bits
    Scan type : Progressive
    Compression mode : Lossy
    Bits/(Pixel*Frame) : 0.199
    Stream size : 853 MiB (83%)
    Writing library : XviD 1.2.1 (UTC 2008-12-04)

    Audio
    ID : 1
    Format : AC-3
    Format/Info : Audio Coding 3
    Mode extension : CM (complete main)
    Codec ID : 2000
    Duration : 1h 58mn
    Bit rate mode : Constant
    Bit rate : 192 Kbps
    Channel(s) : 6 channels
    Channel positions : Front: L C R, Side: L R, LFE
    Sampling rate : 48.0 KHz
    Bit depth : 16 bits
    Compression mode : Lossy
    Stream size : 163 MiB (16%)
    Alignment : Split accross interleaves
    Interleave, duration : 42 ms (1.00 video frame)
    Interleave, preload duration : 500 ms




    [ SCREEN ]












    [ DOWNLOAD ]


    Code:
    http://www.arabloads.com/zs96fb0c73nk/Commando(2013)_1GB_XViD_DVDScr_{Team_ExD}.avi.html
    http://www.arabloads.com/jtxk521wll23/Commando(2013)_1GB_XViD_DVDScr_{Team_ExD}.srt.html

    Code:
    http://filesflash.com/pzdnewl5
    http://filesflash.com/ntnwj4i1

    Code:
    http://uptobox.com/mrvxpy7821g0
    http://uptobox.com/j2mwd5832cdn





 

 

Posting Permissions

  • You may not post new threads
  • You may not post replies
  • You may not post attachments
  • You may not edit your posts
  •