Results 1 to 1 of 1
  1. #1
    dR Contributor www.desirulez.net
    Join Date
    Mar 2010
    Posts
    2,245

    Default Saheb Biwi Aur Gangster Returns (2013) (Hindi) 720p DVDRip x264 6Ch - EXD

    Follow us on Social Media





    Saheb Biwi Aur Gangster Returns (2013) (Hindi) 720p DVDRip x264 6Ch - EXD







    Rip Information

    Code Code:

    Format : Matroska
    Format version : Version 4 / Version 2
    File size : 1.46 GiB
    Duration : 2h 22mn
    Overall bit rate : 1 468 Kbps
    Movie name : Saheb Biwi Aur Gangster Returns (2013)[email protected] [EXD Exclusive]

    Video

    Code Code:

    Format : AVC
    Format/Info : Advanced Video Codec
    Format profile : [email protected]
    Format settings, CABAC : Yes
    Format settings, ReFrames : 5 frames
    Codec ID : V_MPEG4/ISO/AVC
    Duration : 2h 22mn
    Bit rate : 1 018 Kbps
    Width : 1 280 pixels
    Height : 588 pixels
    Display aspect ratio : 2.2:1
    Frame rate mode : Constant
    Frame rate : 29.970 fps
    Color space : YUV
    Chroma subsampling : 4:2:0
    Bit depth : 8 bits
    Scan type : Progressive
    Bits/(Pixel*Frame) : 0.045
    Stream size : 1 010 MiB (67%)
    Title : [email protected]

    Audio

    Code Code:

    Format : AC-3
    Format/Info : Audio Coding 3
    Mode extension : CM (complete main)
    Format settings, Endianness : Big
    Codec ID : A_AC3
    Duration : 2h 22mn
    Bit rate mode : Constant
    Bit rate : 448 Kbps
    Channel(s) : 6 channels
    Channel positions : Front: L C R, Side: L R, LFE
    Sampling rate : 48.0 KHz
    Bit depth : 16 bits
    Compression mode : Lossy
    Stream size : 457 MiB (31%)
    Title : [email protected]
    Language : Hindi



























    Download Links


    Code:
    http://extabit.com/file/2edd3rlrpbj3c/Saheb.Biwi.Aur.Gangster.Returns.2013.720p.DVDRip-x264.6Ch.EXD.Exclusive.mkv



    Code:
    http://uploaded.net/file/nt40qfen/Saheb.Biwi.Aur.Gangster.Returns.2013.720p.DVDRip-x264.6Ch.EXD.Exclusive.mkv



    Code:
    http://lumfile.com/a1n83b6d5u7s/Saheb.Biwi.Aur.Gangster.Returns.2013.720p.DVDRip-x264.6Ch.EXD.Exclusive.mkv.html



    Code:
    http://extabit.com/file/2edd3rlrpbcrc/Saheb.Biwi.Aur.Gangster.Returns.2013.720p.DVDRip-x264.6Ch.EXD.Exclusive.mkv.001
    http://extabit.com/file/2edd3rlrpbsl4/Saheb.Biwi.Aur.Gangster.Returns.2013.720p.DVDRip-x264.6Ch.EXD.Exclusive.mkv.002
    http://extabit.com/file/2edd3rlrpbsns/Saheb.Biwi.Aur.Gangster.Returns.2013.720p.DVDRip-x264.6Ch.EXD.Exclusive.mkv.003
    http://extabit.com/file/2edd3rlrpbpi0/Saheb.Biwi.Aur.Gangster.Returns.2013.720p.DVDRip-x264.6Ch.EXD.Exclusive.srt





    Code:
    http://uploaded.net/file/i4q3sslj/Saheb.Biwi.Aur.Gangster.Returns.2013.720p.DVDRip-x264.6Ch.EXD.Exclusive.mkv.001
    http://uploaded.net/file/bi2mvrrn/Saheb.Biwi.Aur.Gangster.Returns.2013.720p.DVDRip-x264.6Ch.EXD.Exclusive.mkv.002
    http://uploaded.net/file/ibpactgl/Saheb.Biwi.Aur.Gangster.Returns.2013.720p.DVDRip-x264.6Ch.EXD.Exclusive.mkv.003
    http://uploaded.net/file/dbanvjbs/Saheb.Biwi.Aur.Gangster.Returns.2013.720p.DVDRip-x264.6Ch.EXD.Exclusive.srt




    Code:
    http://lumfile.com/0qjyl564j0s9/Saheb.Biwi.Aur.Gangster.Returns.2013.720p.DVDRip-x264.6Ch.EXD.Exclusive.mkv.001.html
    http://lumfile.com/gg7idvd5dx6s/Saheb.Biwi.Aur.Gangster.Returns.2013.720p.DVDRip-x264.6Ch.EXD.Exclusive.mkv.002.html
    http://lumfile.com/02bli3d4hl79/Saheb.Biwi.Aur.Gangster.Returns.2013.720p.DVDRip-x264.6Ch.EXD.Exclusive.mkv.003.html
    http://lumfile.com/bq4ppz2kujal/Saheb.Biwi.Aur.Gangster.Returns.2013.720p.DVDRip-x264.6Ch.EXD.Exclusive.srt.html


 

 

Posting Permissions

  • You may not post new threads
  • You may not post replies
  • You may not post attachments
  • You may not edit your posts
  •