Results 1 to 1 of 1
  1. #1
    Hot Member www.desirulez.net
    Join Date
    Feb 2013
    Posts
    1,015

    Thumbs up Awara 1951 1Cd Dvd Rip With Eng Subs

    Follow us on Social Media









    [ NFO ]

    General
    Format : AVI
    Format/Info : Audio Video Interleave
    File size : 696 MiB
    Duration : 2h 48mn
    Overall bit rate : 578 Kbps
    Writing application : Lavf51.7.0

    Video
    ID : 0
    Format : MPEG-4 Visual
    Format profile : [email protected]
    Format settings, BVOP : No
    Format settings, QPel : No
    Format settings, GMC : No warppoints
    Format settings, Matrix : Default (H.263)
    Codec ID : DIVX
    Codec ID/Info : Project Mayo
    Codec ID/Hint : DivX 4
    Duration : 2h 48mn
    Bit rate : 437 Kbps
    Width : 400 pixels
    Height : 304 pixels
    Display aspect ratio : 4:3
    Frame rate : 29.970 fps
    Color space : YUV
    Chroma subsampling : 40
    Bit depth : 8 bits
    Scan type : Progressive
    Compression mode : Lossy
    Bits/(Pixel*Frame) : 0.120
    Stream size : 526 MiB (76%)
    Writing library : Lavc51.28.0

    Audio
    ID : 1
    Format : MPEG Audio
    Format version : Version 1
    Format profile : Layer 3
    Mode : Joint stereo
    Mode extension : MS Stereo
    Codec ID : 55
    Codec ID/Hint : MP3
    Duration : 2h 48mn
    Bit rate mode : Constant
    Bit rate : 128 Kbps
    Channel(s) : 2 channels
    Sampling rate : 44.1 KHz
    Compression mode : Lossy
    Stream size : 154 MiB (22%)
    Alignment : Aligned on interleaves
    Interleave, duration : 26 ms (0.78 video frame)
    Interleave, preload duration : 522 ms
    Writing library : LAME3.96


    [ SCREEN ]










    [ download ]




    [ arabloads ]
    Code:
    http://www.arabloads.com/yh7m980bn3gh/AWAARA_1951_1CD_DVDRIP_with_English_subtitles.avi.html

    [ uptobox ]
    Code:
    http://uptobox.com/udngl6epswaz
    [ filedesi ]
    Code:
    http://filedesi.com/w2pta445t14l








 

 

Posting Permissions

  • You may not post new threads
  • You may not post replies
  • You may not post attachments
  • You may not edit your posts
  •