Results 1 to 1 of 1
  1. #1
    Hot Member www.desirulez.net
    Join Date
    Feb 2013
    Posts
    1,015

    Thumbs up [HDRiP] Qurbani 1980 X264 2CD HD720p

    Follow us on Social Media









    [ NFO ]

    General

    Format : MPEG-4
    Format profile : Base Media / Version 2
    Codec ID : mp42
    File size : 1.79 GiB
    Duration : 2h 31mn
    Overall bit rate : 1 698 Kbps

    Video
    ID : 1
    Format : AVC
    Format/Info : Advanced Video Codec
    Format profile : [email protected]
    Format settings, CABAC : Yes
    Format settings, ReFrames : 1 frame
    Codec ID : avc1
    Codec ID/Info : Advanced Video Coding
    Duration : 2h 31mn
    Bit rate mode : Variable
    Bit rate : 1 543 Kbps
    Maximum bit rate : 4 439 Kbps
    Width : 1 280 pixels
    Height : 720 pixels
    Display aspect ratio : 16:9
    Frame rate mode : Constant
    Frame rate : 25.000 fps
    Color space : YUV
    Chroma subsampling : 4:2:0
    Bit depth : 8 bits
    Scan type : Progressive
    Bits/(Pixel*Frame) : 0.067
    Stream size : 1.63 GiB (91%)
    Audio
    ID : 2
    Format : AAC
    Format/Info : Advanced Audio Codec
    Format version : Version 4
    Format profile : LC
    Format settings, SBR : No
    Codec ID : 40
    Duration : 2h 31mn
    Bit rate mode : Variable
    Bit rate : 152 Kbps
    Maximum bit rate : 239 Kbps
    Channel(s) : 2 channels
    Channel positions : Front: L R
    Sampling rate : 44.1 KHz
    Stream size : 164 MiB (9%)


    [ SCREEN ]










    [ DOWNLOAD ]


    [ fileopic ]
    Code:
    http://fileopic.com/iiets6pkfa2k
    [ uptobox ]
    Code:
    http://uptobox.com/35268hsv7hge
    [ superupl ]
    Code:
    http://superupl.com/57azn3s8hawr
    [ arabloads ]
    Code:
    http://www.arabloads.com/i0n2l3xk20ql/Qurbani.1980.X264.2CD.HD720p.mp4.html








 

 

Posting Permissions

  • You may not post new threads
  • You may not post replies
  • You may not post attachments
  • You may not edit your posts
  •