Results 1 to 1 of 1
  1. #1
    dR Rockers www.desirulez.net
    Join Date
    Jun 2011
    Posts
    2,793

    Thumbs up Cheetah The Power Of One 2013 BDRip - Xvid - [1CD] - Team IcTv 700Mb

    Follow us on Social Media





    [CENTER]




    General
    Format : AVI
    Format/Info : Audio Video Interleave
    File size : 692 MiB
    Duration : 2h 24mn
    Overall bit rate : 669 Kbps

    Video
    ID : 0
    Format : MPEG-4 Visual
    Format profile : Advanced [email protected]
    Format settings, BVOP : 2
    Format settings, QPel : Yes
    Format settings, GMC : No warppoints
    Format settings, Matrix : Default (H.263)
    Codec ID : XVID
    Codec ID/Hint : XviD
    Duration : 2h 24mn
    Bit rate : 567 Kbps
    Width : 640 pixels
    Height : 272 pixels
    Display aspect ratio : 2.35:1
    Frame rate : 25.000 fps
    Color space : YUV
    Chroma subsampling : 4:2:0
    Bit depth : 8 bits
    Scan type : Progressive
    Compression mode : Lossy
    Bits/(Pixel*Frame) : 0.130
    Stream size : 587 MiB (85%)
    Writing library : XviD 1.2.1 (UTC 2008-12-04)

    Audio
    ID : 1
    Format : MPEG Audio
    Format version : Version 1
    Format profile : Layer 3
    Mode : Joint stereo
    Mode extension : MS Stereo
    Codec ID : 55
    Codec ID/Hint : MP3
    Duration : 2h 24mn
    Bit rate mode : Constant
    Bit rate : 96.0 Kbps
    Channel(s) : 2 channels
    Sampling rate : 32.0 KHz
    Compression mode : Lossy
    Stream size : 99.3 MiB (14%)
    Alignment : Aligned on interleaves
    Interleave, duration : 160 ms (4.00 video frames)
    Interleave, preload duration : 216 ms
    Title : CHEETAH THE POWER
    Writing library : LAME3.99r
    Encoding settings : -m j -V 4 -q 2 -lowpass 15.1 -b 96

























    Resume Supported Links
    Code:
    http://superupl.com/8mfcltqpcuss
    
    http://speedshare.eu/43jj38n70d9k.html
    
    https://fileparadox.in/hz2aqwl1xlxg/Chetah1CD.avi




 

 

Posting Permissions

  • You may not post new threads
  • You may not post replies
  • You may not post attachments
  • You may not edit your posts
  •