Results 1 to 1 of 1
  1. #1
    dR Contributor www.desirulez.net
    Join Date
    Mar 2010
    Posts
    2,245

    Default David (2013) (Hindi) 1CDRip DVDRip XviD Ac3 ExD

    Follow us on Social Media





    David (2013) (Hindi) 1CDRip DVDRip XviD Ac3 ExD








    Rip Information

    Format : AVI
    Format/Info : Audio Video Interleave
    File size : 697 MiB
    Duration : 2h 39mn
    Overall bit rate : 610 Kbps

    Video

    odec ID : XVID
    Codec ID/Hint : XviD
    Duration : 2h 39mn
    Bit rate : 507 Kbps
    Width : 688 pixels
    Height : 288 pixels
    Display aspect ratio : 2.40:1
    Frame rate : 23.976 fps
    Color space : YUV
    Chroma subsampling : 4:2:0
    Bit depth : 8 bits
    Scan type : Progressive
    Compression mode : Lossy
    Bits/(Pixel*Frame) : 0.107
    Stream size : 579 MiB (83%)
    Writing library : XviD 1.2.1 (UTC 2008-12-04)

    Audio

    Format : AC-3
    Format/Info : Audio Coding 3
    Mode extension : CM (complete main)
    Format settings, Endianness : Big
    Codec ID : 2000
    Duration : 2h 39mn
    Bit rate mode : Constant
    Bit rate : 96.0 Kbps
    Channel(s) : 2 channels
    Channel positions : Front: L R
    Sampling rate : 44.1 KHz
    Bit depth : 16 bits
    Compression mode : Lossy
    Stream size : 110 MiB (16%)
    Alignment : Aligned on interleaves
    Interleave, duration : 70 ms (1.67 video frames)
    Interleave, preload duration : 209 ms
    Title : [email protected]















    Download Links




    Code:
    http://extabit.com/file/2edd3tcjc4xiv/David.(2013).1CD.DVDRip.XviD.Ac3.[ExD.ExclusivE].avi



    Code:
    http://uploaded.net/file/48y4l2ht/David.(2013).1CD.DVDRip.XviD.Ac3.[ExD.ExclusivE].avi



    Code:
    http://lumfile.com/yd81m2n4czhg/David.(2013).1CD.DVDRip.XviD.Ac3.[ExD.ExclusivE].avi.html



 

 

Posting Permissions

  • You may not post new threads
  • You may not post replies
  • You may not post attachments
  • You may not edit your posts
  •