Results 1 to 1 of 1
  1. #1
    Hot Member www.desirulez.net
    Join Date
    Feb 2013
    Posts
    1,015

    Thumbs up Swarg 1990 1CD Dvdrip X264 AAC 850 MB

    Follow us on Social Media









    [ NFO ]

    Language:
    Hindi
    Running time:
    2:39:42
    Released:
    May 7, 1990

    Cast & Crew
    Cast

    Govinda
    Rajesh Khanna
    Juhi Chawla
    Madhavi
    Neena Gupta
    Dilip Dhawan

    Directors

    David Dhawan

    Producers

    Filmistan Studios


    Super Hit Hindi movie Swarg (1990) Synopsis: Kumar Sahib with his hard work and efforts is one of the top industrialists. His family consists of loving wife, two young brothers, one sister and a servant Krishna. Though they are stepbrothers and sister, Kumar loves them immensely as his own children. Unfortunately he faces a downfall in his business and he is in a debt of lacs and crore. His stepbrothers refuse to help him. Emotionally shattered Kumar Sahib suffers a heart attack. Krishna, in spite of his masters financial troubles stands by him. The brothers throw him out of the house thus making Kumar all the more miserable. Krishna comes to Bombay and joins films; soon he becomes the most sought after star. Krishna decides to clear all the debts of Kumar Sahib who helped him during his tough times. But Krishna does not find Kumar Sahib; new owners are occupying the bungalow. Finally he finds Kumar Sahib and decides to teach his brothers a lesson. Watch the family drama in the movie Swarg.

    Genera
    Format : MP4 Video
    File size : 860 MiB
    Duration : 2h 39mn
    Overall bit rate : 753 Kbps

    Video
    Format : AVC
    Format/Info : Advanced Video Codec
    Format profile : [email protected]
    Format settings, CABAC : Yes
    Format settings, ReFrames : 3 frames
    Duration : 2h 39mn
    Bit rate : 616 Kbps
    Width : 854 pixels
    Height : 480 pixels
    Display aspect ratio : 16:9
    Frame rate mode : Constant
    Frame rate : 25.000 fps
    Color space : YUV
    Chroma subsampling : 4:2:0
    Bit depth : 8 bits
    Scan type : Progressive
    Bits/(Pixel*Frame) : 0.060
    Stream size : 704 MiB (82%)

    Audio
    Format : AAC
    Format/Info : Advanced Audio Codec
    Format version : Version 4
    Format profile : LC
    Format settings, SBR : No
    Duration : 2h 39mn
    Bit rate : 129 Kbps
    Channel(s) : 2 channels
    Channel positions : Front: L R
    Sampling rate : 44.1 KHz
    Bit depth : 16 bits
    Stream size : 147 MiB (17%)



    [ SCREEN ]





    [ sample ]
    Code:
    http://filedesi.com/lrj79em3ms02

    [ DOWNLOAD ]

    [ arabloads ]
    Code:
    http://www.arabloads.com/j7agwr2n7me9/Swarg.1990.1CD.Dvdrip.X264.AAC.RRG.mp4.html
    [ uptobox ]
    Code:
    http://uptobox.com/0rqnney03udm
    [ fileopic ]
    Code:
    http://fileopic.com/eevozj2z8qwj
    [ superupl ]
    Code:
    http://superupl.com/3s4wxeuai5vj
    [ filesflash ]



 

 

Posting Permissions

  • You may not post new threads
  • You may not post replies
  • You may not post attachments
  • You may not edit your posts
  •