Results 1 to 1 of 1
  1. #1
    Hot Member www.desirulez.net
    Join Date
    Feb 2013
    Posts
    1,015

    Thumbs up Sirf Tum 1999 Hindi DvDrip 720p x264 Untouched AC3...Hon3y

    Follow us on Social Media





    Sirf Tum 1999 Hindi DvDrip 720p x264 Untouched AC3...Hon3y



    [ NFO ]

    http://www.imdb.com/title/tt0244794/

    http://en.wikipedia.org/wiki/Sirf_Tum

    Source : DVD9
    Format : Matroska
    Format version : Version 2
    File size : 2.76 GiBMother India - 1957 - 480p - 1.3 - DVDRip - XVID - AC3 - Sonic
    Duration : 2h 41mn
    Overall bit rate mode : Variable
    Overall bit rate : 2 443 Kbps

    Video
    ID : 1
    Format : AVC
    Format/Info : Advanced Video Codec
    Format profile : [email protected]
    Format settings, CABAC : Yes
    Format settings, ReFrames : 4 frames
    Muxing mode : Header stripping
    Codec ID : V_MPEG4/ISO/AVC
    Duration : 2h 41mn
    Bit rate mode : Variable
    Bit rate : 2 000 Kbps
    Maximum bit rate : 4 000 Kbps
    Width : 1 280 pixels
    Height : 544 pixels
    Display aspect ratio : 2.35:1
    Original display aspect ratio : 2.35:1
    Frame rate : 24.000 fps
    Color space : YUV
    Chroma subsampling : 4:2:0
    Bit depth : 8 bits
    Scan type : Progressive
    Bits/(Pixel*Frame) : 0.120
    Stream size : 2.20 GiB (80%)

    Audio
    ID : 2
    Format : AC-3
    Bit rate mode : Constant
    Bit rate : 448 Kbps
    Channel(s) : 6 channels
    Channel positions : Front: L C R, Side: L R, LFE
    Sampling rate : 48.0 KHz
    Bit depth : 16 bits
    Compression mode : Lossy
    Stream size : 517 MiB (18%)

    Sample : Yes



    [ screen ]







    [ sample ]

    Code:
    http://www.arabloads.com/wxwx3mx6k6ft/Sample.mkv.html

    [ download ]

    Code:
    http://www.arabloads.com/wkwxwtwbwys9/Sirf_Tum_1999_Hindi_DvDrip_720p_x264_Untouched_AC3...Hon3y.mkv.html
    Code:
    http://superupl.com/1ou2nnos25hg
    Code:
    http://fileopic.com/vauj2009v5cq
    Code:
    http://filesflash.com/c37hu17g


 

 

Posting Permissions

  • You may not post new threads
  • You may not post replies
  • You may not post attachments
  • You may not edit your posts
  •