Results 1 to 1 of 1
  1. #1
    Hot Member www.desirulez.net
    Join Date
    Feb 2013
    Posts
    1,015

    Thumbs up Chandni 1989 Hindi Upscaled DvDrip x264 Untouched AC3...Hon3y

    Follow us on Social Media





    Chandni 1989 Hindi Upscaled DvDrip x264 Untouched AC3...Hon3y



    [ NFO ]

    Code:
    http://www.imdb.com/title/tt0097045
    
    http://en.wikipedia.org/wiki/Chandni
    
    Source                     : DVD9
    Format                                   : Matroska
    Format version                           : Version 2
    File size                                : 2.07 GiB
    Duration                                 : 2h 58mn
    Overall bit rate                         : 1 657 Kbps
    Sample                                : Yes
    
    Video
    ID                                       : 1
    Format                                   : AVC
    Format/Info                              : Advanced Video Codec
    Format profile                           : [email protected]
    Format settings, CABAC                   : Yes
    Format settings, ReFrames                : 5 frames
    Codec ID                                 : V_MPEG4/ISO/AVC
    Bit rate                                 : 1 200 Kbps
    Width                                    : 896 pixels
    Height                                   : 384 pixels
    Display aspect ratio                     : 2.35:1
    Frame rate                               : 24.000 fps
    Color space                              : YUV
    Chroma subsampling                       : 4:2:0
    Bit depth                                : 8 bits
    Scan type                                : Progressive
    Bits/(Pixel*Frame)                       : 0.145
    Stream size                              : 1.47 GiB (71%)
    
    Audio
    ID                                       : 2
    Format                                   : AC-3
    Bit rate mode                            : Constant
    Bit rate                                 : 448 Kbps
    Channel(s)                               : 6 channels
    Channel positions                        : Front: L C R, Side: L R, LFE
    Sampling rate                            : 48.0 KHz
    Bit depth                                : 16 bits
    Compression mode                         : Lossy
    Stream size                              : 572 MiB (27%)
    Language                                 : Hindi
    
    Text
    ID                                       : 3
    Format                                   : VobSub
    Codec ID                                 : S_VOBSUB
    Codec ID/Info                            : The same subtitle format used on DVDs
    Language                                 : English

    [ screen ]








    [ sample ]


    Code:
    http://www.arabloads.com/s07wqpdr4oii/Sample.mkv.html

    [ download ]

    Code:
    http://www.arabloads.com/bli9d3w7bbg3/Chandni_1989_Hindi_Upscaled_DvDrip_x264_Untouched_AC3...Hon3y.mkv.html
    Code:
    http://fileopic.com/a40gr65t030f
    Code:
    http://filesflash.com/0vzb61u8
    Code:
    http://superupl.com/6qqhzb3cvy6y



 

 

Posting Permissions

  • You may not post new threads
  • You may not post replies
  • You may not post attachments
  • You may not edit your posts
  •