Results 1 to 1 of 1
  1. #1

    Cool David (2013) - 720p - DVDRip - x264 - AC3 - ESubs - 1.5GB - Team EXD

    Follow us on Social Media













    Rip Information

    Format : Matroska
    Format version : Version 4 / Version 2
    File size : 1.53 GiB
    Duration : 2h 39mn
    Overall bit rate : 1 375 Kbps
    Movie name : David (2013)[email protected] [EXD Exclusive]

    Video

    Format : AVC
    Format/Info : Advanced Video Codec
    Format profile : [email protected]
    Format settings, CABAC : Yes
    Format settings, ReFrames : 4 frames
    Codec ID : V_MPEG4/ISO/AVC
    Duration : 2h 39mn
    Bit rate : 899 Kbps
    Nominal bit rate : 773 Kbps
    Width : 1 280 pixels
    Height : 544 pixels
    Display aspect ratio : 2.35:1
    Frame rate mode : Constant
    Frame rate : 23.976 fps
    Color space : YUV
    Chroma subsampling : 4:2:0
    Bit depth : 8 bits
    Scan type : Progressive
    Bits/(Pixel*Frame) : 0.054
    Stream size : 1.00 GiB (65%)
    Title : [email protected]
    Writing library : x264 core 130 r2273 b3065e6

    Audio

    Format : AC-3
    Format/Info : Audio Coding 3
    Mode extension : CM (complete main)
    Format settings, Endianness : Big
    Codec ID : A_AC3
    Duration : 2h 39mn
    Bit rate mode : Constant
    Bit rate : 448 Kbps
    Channel(s) : 6 channels
    Channel positions : Front: L C R, Side: L R, LFE
    Sampling rate : 48.0 KHz
    Bit depth : 16 bits
    Compression mode : Lossy
    Stream size : 512 MiB (33%)
    Title : [email protected]
    Language : Hindi
    Default : Yes


    Code:
    http://rapidgator.net/file/0b2be52290de1f273a4685f2af7c3ab2/David_(2013)[email protected]_[EXD_Exclusive].mkv.html
    
    Subs:
    http://rapidgator.net/file/902c6045b250166137beffbabf5a1549/David_(2013)[email protected]_[EXD_Exclusive].srt.html
    Code:
    http://ul.to/gipohgs6
    http://ul.to/5rvvs90e
    
    Subs:
    http://ul.to/t3x269wz
    Code:
    http://ultramegabit.com/file/details/iblqlGhRTto
    http://ultramegabit.com/file/details/TW5vH8IY_1U
    
    Subs:
    http://ultramegabit.com/file/details/nEw2G4ln0Q0

 

 

Posting Permissions

  • You may not post new threads
  • You may not post replies
  • You may not post attachments
  • You may not edit your posts
  •