Results 1 to 1 of 1
  1. #1
    dR Rockers www.desirulez.net
    Join Date
    Aug 2011
    Posts
    5,859

    Cool Chashme Baddoor (2013) Untouched DvDScr [Team ExDR] [ExClusive]

    Follow us on Social Media













    Code:
    Format                                   : MPEG-PS
    File size                                : 2.97 GiB
    Duration                                 : 1h 52mn
    Overall bit rate mode                    : Variable
    Overall bit rate                         : 3 778 Kbps
    
    Video
    ID                                       : 224 (0xE0)
    Format                                   : MPEG Video
    Format version                           : Version 2
    Format profile                           : [email protected]
    Format settings, BVOP                    : Yes
    Format settings, Matrix                  : Default
    Format settings, GOP                     : M=3, N=12
    Duration                                 : 1h 52mn
    Bit rate mode                            : Variable
    Bit rate                                 : 3 575 Kbps
    Maximum bit rate                         : 2 519 Mbps
    Width                                    : 720 pixels
    Height                                   : 576 pixels
    Display aspect ratio                     : 16:9
    Frame rate                               : 25.000 fps
    Standard                                 : PAL
    Color space                              : YUV
    Chroma subsampling                       : 4:2:0
    Bit depth                                : 8 bits
    Scan type                                : Progressive
    Compression mode                         : Lossy
    Bits/(Pixel*Frame)                       : 0.345
    Stream size                              : 2.81 GiB (95%)
    
    Audio
    ID                                       : 192 (0xC0)
    Format                                   : MPEG Audio
    Format version                           : Version 1
    Format profile                           : Layer 2
    Duration                                 : 1h 52mn
    Bit rate mode                            : Constant
    Bit rate                                 : 128 Kbps
    Channel(s)                               : 2 channels
    Sampling rate                            : 44.1 KHz
    Compression mode                         : Lossy
    Stream size                              : 103 MiB (3%)


















    SINGLE DIRECT FAST LINKS

    Code:
    http://lumfile.com/dhu9u7r9m6lu/Chashme.Baddoor.(2013).Untouched.DvDScr.[Team.ExDR].[ExClusive].rar.html
    Code:
    http://extabit.com/file/2duchm2gvvoet/Chashme.Baddoor.(2013).Untouched.DvDScr.[Team.ExDR].[ExClusive].rar

    700MB LINKS



    Code:
    http://lumfile.com/xwz699ccmpzu/Chashme.Baddoor.(2013).Untouched.DvDScr.[Team.ExDR].[ExClusive].part1.rar.html
    http://lumfile.com/qmg3z0af7q25/Chashme.Baddoor.(2013).Untouched.DvDScr.[Team.ExDR].[ExClusive].part2.rar.html
    http://lumfile.com/i1tij2btj52y/Chashme.Baddoor.(2013).Untouched.DvDScr.[Team.ExDR].[ExClusive].part3.rar.html
    http://lumfile.com/tcfku0j3o53p/Chashme.Baddoor.(2013).Untouched.DvDScr.[Team.ExDR].[ExClusive].part4.rar.html
    http://lumfile.com/jug7fn0qwvg4/Chashme.Baddoor.(2013).Untouched.DvDScr.[Team.ExDR].[ExClusive].part5.rar.html

    Code:
    http://extabit.com/file/2duchm2gvuprp/Chashme.Baddoor.(2013).Untouched.DvDScr.[Team.ExDR].[ExClusive].part1.rar
    http://extabit.com/file/2duchm2gvumlh/Chashme.Baddoor.(2013).Untouched.DvDScr.[Team.ExDR].[ExClusive].part2.rar
    http://extabit.com/file/2duchm2gvug45/Chashme.Baddoor.(2013).Untouched.DvDScr.[Team.ExDR].[ExClusive].part3.rar
    http://extabit.com/file/2duchm2gvug51/Chashme.Baddoor.(2013).Untouched.DvDScr.[Team.ExDR].[ExClusive].part4.rar
    http://extabit.com/file/2duchm2gvuw11/Chashme.Baddoor.(2013).Untouched.DvDScr.[Team.ExDR].[ExClusive].part5.rar

 

 

Posting Permissions

  • You may not post new threads
  • You may not post replies
  • You may not post attachments
  • You may not edit your posts
  •