Results 1 to 1 of 1
  1. #1

    Cool David (2013) - 1CD - DvdRip - XviD - AC3 - Team EXD

    Follow us on Social Media











    Rip Information

    Format : AVI
    Format/Info : Audio Video Interleave
    File size : 697 MiB
    Duration : 2h 39mn
    Overall bit rate : 610 Kbps

    Video

    Codec ID : XVID
    Codec ID/Hint : XviD
    Duration : 2h 39mn
    Bit rate : 507 Kbps
    Width : 688 pixels
    Height : 288 pixels
    Display aspect ratio : 2.40:1
    Frame rate : 23.976 fps
    Color space : YUV
    Chroma subsampling : 4:2:0
    Bit depth : 8 bits
    Scan type : Progressive
    Compression mode : Lossy
    Bits/(Pixel*Frame) : 0.107
    Stream size : 579 MiB (83%)
    Writing library : XviD 1.2.1 (UTC 2008-12-04)

    Audio

    Format : AC-3
    Format/Info : Audio Coding 3
    Mode extension : CM (complete main)
    Format settings, Endianness : Big
    Codec ID : 2000
    Duration : 2h 39mn
    Bit rate mode : Constant
    Bit rate : 96.0 Kbps
    Channel(s) : 2 channels
    Channel positions : Front: L R
    Sampling rate : 44.1 KHz
    Bit depth : 16 bits
    Compression mode : Lossy
    Stream size : 110 MiB (16%)
    Alignment : Aligned on interleaves
    Interleave, duration : 70 ms (1.67 video frames)
    Interleave, preload duration : 209 ms
    Title : [email protected]


    Code:
    http://rapidgator.net/file/5cc6f95e2f88b571525d998f6da1afb1/David_(2013).[email protected]_[ExD_ExclusivE].avi.html
    
    http://ul.to/xurglqo6
    
    http://ultramegabit.com/file/details/54P0aQEEO6E

 

 

Posting Permissions

  • You may not post new threads
  • You may not post replies
  • You may not post attachments
  • You may not edit your posts
  •