Results 1 to 1 of 1
  1. #1
    Landed To DesiRulez www.desirulez.net
    Join Date
    Mar 2013
    Posts
    14

    Default [UL/RG] Unstoppable (2010) 720p BluRay AC3 x264

    Follow us on Social Media





    - If you come across this topic, please leave a comment or just a quick "THANKS". Thank You !
    - Buy a premium account via my links to download movies with max speed and support me ^_^
    - Visit the link on my signature for more great movie share.



    IMDB INFORMATION
    Code:
    http://www.imdb.com/title/tt0477080/
    VIEW MOVIE TRAILER ON YOUTUBE
    Code:
    http://www.youtube.com/watch?v=fyuoIqeL-bc

    DETAILS OF MEDIA

    Code:
    General
    Unique ID                                : 205704592917368158893716967670743401449 (0x9AC1437607D7CAB5AA1A97E108AD83E9)
    Complete name                            : C:\Users\Administrator\Desktop\DOWNLOAD\BackUpm821m_Unstpbl_10_AdiT720p\Unstoppable (2010) 720p BluRay AC3 x264.mkv
    Format                                   : Matroska
    Format version                           : Version 2
    File size                                : 2.73 GiB
    Duration                                 : 1h 38mn
    Overall bit rate                         : 3 964 Kbps
    Movie name                               : Unstoppable.2010.720p.BluRay.AC3.x264-AdiT
    Encoded date                             : UTC 2011-01-26 06:10:05
    Writing application                      : mkvmerge v3.4.0 ('Rapunzel') built on May 15 2010 09:38:20
    Writing library                          : libebml v0.8.0 + libmatroska v0.9.0
    
    Video
    ID                                       : 1
    Format                                   : AVC
    Format/Info                              : Advanced Video Codec
    Format profile                           : [email protected]
    Format settings, CABAC                   : Yes
    Format settings, ReFrames                : 5 frames
    Codec ID                                 : V_MPEG4/ISO/AVC
    Duration                                 : 1h 38mn
    Bit rate                                 : 3 437 Kbps
    Width                                    : 1 280 pixels
    Height                                   : 534 pixels
    Display aspect ratio                     : 2.40:1
    Original display aspect ratio            : 2.40:1
    Frame rate mode                          : Constant
    Frame rate                               : 23.976 fps
    Color space                              : YUV
    Chroma subsampling                       : 4:2:0
    Bit depth                                : 8 bits
    Scan type                                : Progressive
    Bits/(Pixel*Frame)                       : 0.210
    Stream size                              : 2.36 GiB (87%)
    Writing library                          : x264 core 112 r1867 22bfd31
    Encoding settings                        : cabac=1 / ref=5 / deblock=1:-3:-3 / analyse=0x3:0x133 / me=umh / subme=8 / psy=1 / psy_rd=1.00:0.00 / mixed_ref=1 / me_range=32 / chroma_me=1 / trellis=2 / 8x8dct=1 / cqm=2 / deadzone=21,11 / fast_pskip=0 / chroma_qp_offset=-2 / threads=6 / sliced_threads=0 / nr=0 / decimate=1 / interlaced=0 / constrained_intra=0 / bframes=3 / b_pyramid=2 / b_adapt=1 / b_bias=0 / direct=1 / weightb=1 / open_gop=0 / weightp=2 / keyint=250 / keyint_min=23 / scenecut=40 / intra_refresh=0 / rc_lookahead=40 / rc=crf / mbtree=1 / crf=23.5 / qcomp=0.60 / qpmin=10 / qpmax=51 / qpstep=4 / ip_ratio=1.40 / aq=1:1.00
    Default                                  : No
    Forced                                   : No
    
    Audio
    ID                                       : 2
    Format                                   : AC-3
    Format/Info                              : Audio Coding 3
    Mode extension                           : CM (complete main)
    Format settings, Endianness              : Big
    Codec ID                                 : A_AC3
    Duration                                 : 1h 38mn
    Bit rate mode                            : Constant
    Bit rate                                 : 448 Kbps
    Channel(s)                               : 6 channels
    Channel positions                        : Front: L C R, Side: L R, LFE
    Sampling rate                            : 48.0 KHz
    Bit depth                                : 16 bits
    Compression mode                         : Lossy
    Stream size                              : 316 MiB (11%)
    Language                                 : English
    Default                                  : Yes
    Forced                                   : No
    
    Text
    ID                                       : 3
    Format                                   : UTF-8
    Codec ID                                 : S_TEXT/UTF8
    Codec ID/Info                            : UTF-8 Plain Text
    Language                                 : English
    Default                                  : Yes
    Forced                                   : No
    SOME SCREENSHOTS






    Code:
    http://rapidgator.net/file/e0fe2c4df429f198cc85a87fe4700bdb/Unstoppable_(2010)_720p_BluRay_AC3_x264.part1.rar.html
    http://rapidgator.net/file/52ff66f59393b6a7dd7f7143706a7770/Unstoppable_(2010)_720p_BluRay_AC3_x264.part2.rar.html
    http://rapidgator.net/file/0c729cd4834c7965fc1581909de01b2d/Unstoppable_(2010)_720p_BluRay_AC3_x264.part3.rar.html
    http://rapidgator.net/file/2b96feb8ead1d4844884d7711bf8cf03/Unstoppable_(2010)_720p_BluRay_AC3_x264.part4.rar.html
    http://rapidgator.net/file/7c5c74755b3791a4b914eefa329b7e51/Unstoppable_(2010)_720p_BluRay_AC3_x264.part5.rar.html
    http://rapidgator.net/file/2ad12457a348bef800c3e7a8d1c529a3/Unstoppable_(2010)_720p_BluRay_AC3_x264.part6.rar.html

    Code:
    http://ul.to/ydop7sgc
    http://ul.to/u9j7hinb
    http://ul.to/dbjbqypm
    http://ul.to/pa58v4rw
    http://ul.to/ortsqt1y
    http://ul.to/6yf9o2gz

 

 

Posting Permissions

  • You may not post new threads
  • You may not post replies
  • You may not post attachments
  • You may not edit your posts
  •