Results 1 to 1 of 1
  1. #1
    Landed To DesiRulez www.desirulez.net
    Join Date
    Mar 2013
    Posts
    14

    Default Lincoln (2012) 720p BluRay AC3 x264

    Follow us on Social Media





    - If you come across this topic, please leave a comment or just a quick "THANKS". Thank You !
    - Buy a premium account via my links to download movies with max speed and support me ^_^
    - Visit the link on my signature for more great movie share.



    IMDB INFORMATION
    Code:
    http://www.imdb.com/title/tt0443272/
    VIEW MOVIE TRAILER ON YOUTUBE
    Code:
    http://www.youtube.com/watch?v=EC0_7Eiiu3Y

    DETAILS OF MEDIA

    Code:
    General
    Unique ID                                : 195018001461870582446380782030392097529 (0x92B719D2AE815ADE9D33072028577AF9)
    Complete name                            : C:\Users\Administrator\Desktop\DOWNLOAD\Lincoln (2012) 720p BluRay AC3 x264.mkv
    Format                                   : Matroska
    Format version                           : Version 4 / Version 2
    File size                                : 3.51 GiB
    Duration                                 : 2h 29mn
    Overall bit rate                         : 3 350 Kbps
    Movie name                               : Lincoln (2012) 720p BluRay AC3 x264 - AdiT
    Encoded date                             : UTC 2013-03-10 09:56:26
    Writing application                      : mkvmerge v6.1.0 ('Old Devil') built on Mar  2 2013 14:32:37
    Writing library                          : libebml v1.3.0 + libmatroska v1.4.0
    
    Video
    ID                                       : 1
    Format                                   : AVC
    Format/Info                              : Advanced Video Codec
    Format profile                           : [email protected]
    Format settings, CABAC                   : Yes
    Format settings, ReFrames                : 5 frames
    Codec ID                                 : V_MPEG4/ISO/AVC
    Duration                                 : 2h 29mn
    Bit rate                                 : 2 643 Kbps
    Width                                    : 1 280 pixels
    Height                                   : 534 pixels
    Display aspect ratio                     : 2.40:1
    Frame rate mode                          : Constant
    Frame rate                               : 23.976 fps
    Color space                              : YUV
    Chroma subsampling                       : 4:2:0
    Bit depth                                : 8 bits
    Scan type                                : Progressive
    Bits/(Pixel*Frame)                       : 0.161
    Stream size                              : 2.77 GiB (79%)
    Writing library                          : x264 core 129 r2245 bc13772
    Encoding settings                        : cabac=1 / ref=5 / deblock=1:-2:-2 / analyse=0x3:0x133 / me=umh / subme=8 / psy=1 / psy_rd=1.00:0.00 / mixed_ref=1 / me_range=16 / chroma_me=1 / trellis=2 / 8x8dct=1 / cqm=0 / deadzone=21,11 / fast_pskip=0 / chroma_qp_offset=-2 / threads=12 / lookahead_threads=2 / sliced_threads=0 / nr=0 / decimate=0 / interlaced=0 / bluray_compat=0 / constrained_intra=0 / bframes=3 / b_pyramid=2 / b_adapt=1 / b_bias=0 / direct=1 / weightb=1 / open_gop=0 / weightp=2 / keyint=240 / keyint_min=23 / scenecut=40 / intra_refresh=0 / rc_lookahead=40 / rc=crf / mbtree=1 / crf=19.0 / qcomp=0.60 / qpmin=10 / qpmax=51 / qpstep=4 / ip_ratio=1.40 / aq=1:1.00
    Language                                 : English
    Default                                  : Yes
    Forced                                   : No
    
    Audio
    ID                                       : 2
    Format                                   : AC-3
    Format/Info                              : Audio Coding 3
    Mode extension                           : CM (complete main)
    Format settings, Endianness              : Big
    Codec ID                                 : A_AC3
    Duration                                 : 2h 29mn
    Bit rate mode                            : Constant
    Bit rate                                 : 640 Kbps
    Channel(s)                               : 6 channels
    Channel positions                        : Front: L C R, Side: L R, LFE
    Sampling rate                            : 48.0 KHz
    Bit depth                                : 16 bits
    Compression mode                         : Lossy
    Stream size                              : 686 MiB (19%)
    Language                                 : English
    Default                                  : Yes
    Forced                                   : No
    
    Text
    ID                                       : 3
    Format                                   : UTF-8
    Codec ID                                 : S_TEXT/UTF8
    Codec ID/Info                            : UTF-8 Plain Text
    Language                                 : English
    Default                                  : Yes
    Forced                                   : No
    
    Menu
    00:00:00.000                             : en:00:00:00.000
    00:06:11.246                             : en:00:06:11.246
    00:13:57.920                             : en:00:13:57.920
    00:23:16.604                             : en:00:23:16.604
    00:35:13.570                             : en:00:35:13.570
    00:40:31.929                             : en:00:40:31.929
    00:45:53.793                             : en:00:45:53.793
    00:52:56.840                             : en:00:52:56.840
    00:59:45.874                             : en:00:59:45.874
    01:08:25.977                             : en:01:08:25.977
    01:18:55.940                             : en:01:18:55.940
    01:24:30.607                             : en:01:24:30.607
    01:35:41.486                             : en:01:35:41.486
    01:39:58.868                             : en:01:39:58.868
    01:46:40.769                             : en:01:46:40.769
    01:52:54.184                             : en:01:52:54.184
    02:02:51.030                             : en:02:02:51.030
    02:09:32.264                             : en:02:09:32.264
    02:15:42.718                             : en:02:15:42.718
    02:21:23.308                             : en:02:21:23.308
    SOME SCREENSHOTS






    Code:
    http://www.keeplinks.me/d/zwftmgfk
    http://www.keeplinks.me/d/bzliz3uz
    http://www.keeplinks.me/d/b3d4mtk3
    http://www.keeplinks.me/d/mndtn2pu
    http://www.keeplinks.me/d/ogyza3zs
    http://www.keeplinks.me/d/yjbkymn1
    http://www.keeplinks.me/d/znj0z3hl
    http://www.keeplinks.me/d/owmwdzr6

    Code:
    http://ul.to/8s8sxlo4
    http://ul.to/unri0vww
    http://ul.to/0zyjcjtl
    http://ul.to/j6zhq9y6
    http://ul.to/0ivac75u
    http://ul.to/46qr585k
    http://ul.to/np7lkgo3
    http://ul.to/ps88xdr4

 

 

Posting Permissions

  • You may not post new threads
  • You may not post replies
  • You may not post attachments
  • You may not edit your posts
  •