Results 1 to 1 of 1
  1. #1
    Landed To DesiRulez www.desirulez.net
    Join Date
    Mar 2013
    Posts
    14

    Thumbs up [RG/UL] Border Run (2013) 720p BDRip AC3 x264

    Follow us on Social Media





    - If you come across this topic, please leave a comment or just a quick "THANKS". Thank You !
    - Buy a premium account via my links to download movies with max speed and support me ^_^
    - Visit the link on my signature for more great movie share.



    IMDB INFORMATION
    Code:
    http://www.imdb.com/title/tt2069955/
    VIEW MOVIE TRAILER ON YOUTUBE
    Code:
    http://www.youtube.com/watch?v=kWCVnghAwxk

    DETAILS OF MEDIA

    Code:
    General
    Unique ID                                : 175253178157312802029463363495274304011 (0x83D888CC397EE4BBA6B3D38B4149520B)
    Complete name                            : C:\Users\Administrator\Desktop\DOWNLOAD\Border Run (2013) 720p BDRip AC3 x264 - AdiT.mkv
    Format                                   : Matroska
    Format version                           : Version 4 / Version 2
    File size                                : 2.06 GiB
    Duration                                 : 1h 36mn
    Overall bit rate                         : 3 064 Kbps
    Movie name                               : Border Run (2013) 720p BDRip AC3 x264 - AdiT
    Encoded date                             : UTC 2013-02-14 19:48:50
    Writing application                      : mkvmerge v6.0.0 ('Coming Up For Air') built on Jan 20 2013 09:52:00
    Writing library                          : libebml v1.3.0 + libmatroska v1.4.0
    
    Video
    ID                                       : 1
    Format                                   : AVC
    Format/Info                              : Advanced Video Codec
    Format profile                           : [email protected]
    Format settings, CABAC                   : Yes
    Format settings, ReFrames                : 5 frames
    Codec ID                                 : V_MPEG4/ISO/AVC
    Duration                                 : 1h 36mn
    Bit rate                                 : 2 555 Kbps
    Width                                    : 1 280 pixels
    Height                                   : 544 pixels
    Display aspect ratio                     : 2.35:1
    Frame rate mode                          : Constant
    Frame rate                               : 23.976 fps
    Color space                              : YUV
    Chroma subsampling                       : 4:2:0
    Bit depth                                : 8 bits
    Scan type                                : Progressive
    Bits/(Pixel*Frame)                       : 0.153
    Stream size                              : 1.72 GiB (83%)
    Writing library                          : x264 core 129 r2245 bc13772
    Encoding settings                        : cabac=1 / ref=5 / deblock=1:-2:-2 / analyse=0x3:0x133 / me=umh / subme=8 / psy=1 / psy_rd=1.00:0.00 / mixed_ref=1 / me_range=16 / chroma_me=1 / trellis=2 / 8x8dct=1 / cqm=0 / deadzone=21,11 / fast_pskip=0 / chroma_qp_offset=-2 / threads=6 / lookahead_threads=1 / sliced_threads=0 / nr=0 / decimate=1 / interlaced=0 / bluray_compat=0 / constrained_intra=0 / bframes=3 / b_pyramid=2 / b_adapt=1 / b_bias=0 / direct=1 / weightb=1 / open_gop=0 / weightp=2 / keyint=240 / keyint_min=23 / scenecut=40 / intra_refresh=0 / rc_lookahead=40 / rc=crf / mbtree=1 / crf=20.0 / qcomp=0.60 / qpmin=10 / qpmax=51 / qpstep=4 / ip_ratio=1.40 / aq=1:1.00
    Language                                 : English
    Default                                  : Yes
    Forced                                   : Yes
    
    Audio
    ID                                       : 2
    Format                                   : AC-3
    Format/Info                              : Audio Coding 3
    Mode extension                           : CM (complete main)
    Format settings, Endianness              : Big
    Codec ID                                 : A_AC3
    Duration                                 : 1h 36mn
    Bit rate mode                            : Constant
    Bit rate                                 : 448 Kbps
    Channel(s)                               : 6 channels
    Channel positions                        : Front: L C R, Side: L R, LFE
    Sampling rate                            : 48.0 KHz
    Bit depth                                : 16 bits
    Compression mode                         : Lossy
    Stream size                              : 309 MiB (15%)
    Language                                 : English
    Default                                  : Yes
    Forced                                   : Yes
    
    Text
    ID                                       : 3
    Format                                   : UTF-8
    Codec ID                                 : S_TEXT/UTF8
    Codec ID/Info                            : UTF-8 Plain Text
    Language                                 : English
    Default                                  : Yes
    Forced                                   : No
    SOME SCREENSHOTS






    Code:
    http://www.keeplinks.me/d/dhm3cnr4
    http://www.keeplinks.me/d/bnq2cdlh
    http://www.keeplinks.me/d/mdvvz3g3
    http://www.keeplinks.me/d/d20yzzr2
    http://www.keeplinks.me/d/ennudzj1

    Code:
    http://www.keeplinks.me/d/d29yaxfx
    http://www.keeplinks.me/d/dzlknmzi
    http://www.keeplinks.me/d/yxiyznj4
    http://www.keeplinks.me/d/dwo0ahn5
    http://www.keeplinks.me/d/dmvozgth

 

 

Posting Permissions

  • You may not post new threads
  • You may not post replies
  • You may not post attachments
  • You may not edit your posts
  •