Results 1 to 1 of 1
  1. #1
    dR Rockers www.desirulez.net
    Join Date
    Aug 2011
    Posts
    5,859

    Cool Himmat Wala (2013) DvDSCR Untouched [Team ExDR] [ExClusive]

    Follow us on Social Media













    Code:
    Format                                   : MPEG-PS
    File size                                : 2.00 GiB
    Duration                                 : 2h 25mn
    Overall bit rate mode                    : Variable
    Overall bit rate                         : 1 971 Kbps
    
    Video
    ID                                       : 224 (0xE0)
    Format                                   : MPEG Video
    Format version                           : Version 2
    Format profile                           : [email protected]
    Format settings, BVOP                    : Yes
    Format settings, Matrix                  : Default
    Format settings, GOP                     : M=3, N=15
    Duration                                 : 2h 25mn
    Bit rate mode                            : Variable
    Bit rate                                 : 1 800 Kbps
    Width                                    : 352 pixels
    Height                                   : 480 pixels
    Display aspect ratio                     : 4:3
    Frame rate                               : 29.970 fps
    Standard                                 : NTSC
    Color space                              : YUV
    Chroma subsampling                       : 4:2:0
    Bit depth                                : 8 bits
    Scan type                                : Progressive
    Compression mode                         : Lossy
    Bits/(Pixel*Frame)                       : 0.355
    Stream size                              : 1.83 GiB (92%)
    
    Audio
    ID                                       : 192 (0xC0)
    Format                                   : MPEG Audio
    Format version                           : Version 1
    Format profile                           : Layer 3
    Duration                                 : 2h 25mn
    Bit rate mode                            : Constant
    Bit rate                                 : 128 Kbps
    Channel(s)                               : 2 channels
    Sampling rate                            : 48.0 KHz
    Compression mode                         : Lossy
    Delay relative to video                  : 24ms
    Stream size                              : 133 MiB (6%)






    SINGLE DIRECT FAST LINKS


    Code:
    http://lumfile.com/iv2ctah0ne7v/HimmatWala.(2013).DvDSCR.Untouched.[Team.ExDR].[ExClusive].rar.html
    Code:
    http://extabit.com/file/2duchcopc9owl/HimmatWala.(2013).DvDSCR.Untouched.[Team.ExDR].[ExClusive].rar

 

 

Posting Permissions

  • You may not post new threads
  • You may not post replies
  • You may not post attachments
  • You may not edit your posts
  •