Results 1 to 1 of 1
  1. #1
    Hot Member www.desirulez.net
    Join Date
    Feb 2013
    Posts
    1,015

    Thumbs up Sona Spa (2013) HQ Super Cam Rip - XviD - Mp3 - [500MB] - D3Si

    Follow us on Social Media





    Sona Spa (2013) HQ Super Cam Rip - XviD - Mp3 - [500MB] - D3Si



    Format : AVI
    Format/Info : Audio Video Interleave
    File size : 484 MiB
    Duration : 1h 40mn
    Overall bit rate : 676 Kbps
    Writing library : Boilsoft AVI tool build 30012/release

    Video
    ID : 0
    Format : MPEG-4 Visual
    Format profile : Advanced [email protected]
    Format settings, BVOP : 2
    Format settings, QPel : No
    Format settings, GMC : No warppoints
    Format settings, Matrix : Default (H.263)
    Codec ID : XVID
    Codec ID/Hint : XviD
    Duration : 1h 40mn
    Bit rate : 570 Kbps
    Width : 592 pixels
    Height : 272 pixels
    Display aspect ratio : 2.2:1
    Frame rate : 25.000 fps
    Color space : YUV
    Chroma subsampling : 4:2:0
    Bit depth : 8 bits
    Scan type : Progressive
    Compression mode : Lossy
    Bits/(Pixel*Frame) : 0.142
    Stream size : 408 MiB (84%)
    Writing library : XviD 1.2.1 (UTC 2008-12-04)

    Audio
    ID : 1
    Format : MPEG Audio
    Format version : Version 1
    Format profile : Layer 3
    Mode : Joint stereo
    Mode extension : MS Stereo
    Codec ID : 55
    Codec ID/Hint : MP3
    Duration : 1h 40mn
    Bit rate mode : Constant
    Bit rate : 96.0 Kbps
    Channel(s) : 2 channels
    Sampling rate : 32.0 KHz
    Compression mode : Lossy
    Stream size : 68.8 MiB (14%)
    Alignment : Split accross interleaves
    Interleave, duration : 40 ms (1.00 video frame)
    Interleave, preload duration : 500 ms
    Writing library : LAME3.99r
    Encoding settings : -m j -V 4 -q 2 -lowpass 15.1 -b 96








    Code:
    http://filesflash.com/32qmxsi1
    Code:
    http://180upload.com/n49slugr134x
    Code:
    http://BillionUploads.com/qfd8tlusj5zq
    Code:
    http://lumfile.com/oby9b7hqq5y8/Sona_Spa_(2013)_HQ_Super_Cam_Rip_-_XviD_-_Mp3_-_%5B500MB%5D_-_D3Si_.avi.html



 

 

Posting Permissions

  • You may not post new threads
  • You may not post replies
  • You may not post attachments
  • You may not edit your posts
  •