Results 1 to 1 of 1
  1. #1
    Hot Member www.desirulez.net
    Join Date
    Feb 2013
    Posts
    1,015

    Thumbs up HimmatWala (2013) 1CD HDScam Xvid - ICTV Exclusive

    Follow us on Social Media





    HimmatWala (2013) 1CD HDScam Xvid - ICTV Exclusive





    Media Info -
    Video
    ID : 0
    Format : MPEG-4 Visual
    Format profile : Advanced [email protected]
    Format settings, BVOP : 2
    Format settings, QPel : No
    Format settings, GMC : No warppoints
    Format settings, Matrix : Default (H.263)
    Codec ID : XVID
    Codec ID/Hint : XviD
    Duration : 2h 11mn
    Bit rate : 640 Kbps
    Width : 608 pixels
    Height : 256 pixels
    Display aspect ratio : 2.40:1
    Frame rate : 25.000 fps
    Color space : YUV
    Chroma subsampling : 40
    Bit depth : 8 bits
    Scan type : Progressive
    Compression mode : Lossy
    Bits/(Pixel*Frame) : 0.164
    Stream size : 600 MiB (86%)
    Writing library : XviD 1.2.1 (UTC 2008-12-04)

    Audio
    ID : 1
    Format : MPEG Audio
    Format version : Version 1
    Format profile : Layer 3
    Mode : Joint stereo
    Mode extension : MS Stereo
    Codec ID : 55
    Codec ID/Hint : MP3
    Duration : 2h 11mn
    Bit rate mode : Variable
    Bit rate : 96.0 Kbps
    Channel(s) : 2 channels
    Sampling rate : 32.0 KHz
    Compression mode : Lossy
    Stream size : 87.2 MiB (13%)
    Alignment : Aligned on interleaves
    Interleave, duration : 36 ms (0.90 video frame)
    Interleave, preload duration : 167 ms
    Title : VTS_01_1 Tc0 L2 2ch 48 128 DELAY 0ms
    Writing library : LAME3.99r
    Encoding settings : -m j -V 4 -q 2 -lowpass 15.1 --abr 96
















    Code:
    http://filesflash.com/z1llm3xf
    Code:
    http://180upload.com/55wiuj7zglzu
    Code:
    http://lumfile.com/eityznf1dteq/Himmatwala_2013_1CD_HD_Scam_Xvid_Mp3_Team_IcTv_Exclusive.avi.html
    Code:
    http://BillionUploads.com/f6uayy1js1mo


 

 

Posting Permissions

  • You may not post new threads
  • You may not post replies
  • You may not post attachments
  • You may not edit your posts
  •