Results 1 to 2 of 2
  1. #1
    dR Rockers www.desirulez.net
    Join Date
    Aug 2011
    Posts
    5,859

    Cool Race 2 (2013) 1/3DvdRip XviD AC3 5.1CH MSubs [Team Jaffa]

    Follow us on Social Media














    Code:
    General
    Format : AVI
    Format/Info : Audio Video Interleave
    File size : 1.45 GiB
    Duration : 2h 25mn
    Overall bit rate : 1 421 Kbps
    
    Video
    ID : 0
    Format : MPEG-4 Visual
    Format profile : Advanced [email protected]
    Format settings, BVOP : 2
    Format settings, QPel : No
    Format settings, GMC : No warppoints
    Format settings, Matrix : Default (H.263)
    Codec ID : XVID
    Codec ID/Hint : XviD
    Duration : 2h 25mn
    Bit rate : 1 189 Kbps
    Width : 720 pixels
    Height : 304 pixels
    Display aspect ratio : 2.35:1
    Frame rate : 23.976 fps
    Color space : YUV
    Chroma subsampling : 4:2:0
    Bit depth : 8 bits
    Scan type : Progressive
    Compression mode : Lossy
    Bits/(Pixel*Frame) : 0.227
    Stream size : 1.21 GiB (84%)
    Writing library : XviD 1.2.1 (UTC 2008-12-04)
    
    Audio
    ID : 1
    Format : AC-3
    Format/Info : Audio Coding 3
    Mode extension : CM (complete main)
    Format settings, Endianness : Big
    Codec ID : 2000
    Duration : 2h 25mn
    Bit rate mode : Constant
    Bit rate : 224 Kbps
    Channel(s) : 6 channels
    Channel positions : Front: L C R, Side: L R, LFE
    Sampling rate : 48.0 KHz
    Bit depth : 16 bits
    Compression mode : Lossy
    Stream size : 234 MiB (16%)
    Alignment : Aligned on interleaves
    Interleave, duration : 64 ms (1.53 video frames)
    Interleave, preload duration : 192 ms
    Title : audio
    
    Subs: English And Arabic
























    SINGLE DIRECT FAST LINKS


    Code:
    http://lumfile.com/5q1gul7pxzho/Race.2.(2013).DvdRip.XviD.AC3.5.1CH.MSubs.2CD.[Team.Jaffa].avi.html
    http://lumfile.com/korx5lfuyqka/Race.2.(2013).DvdRip.XviD.AC3.5.1CH.MSubs.2CD.[Team.Jaffa].idx.html
    http://lumfile.com/kxftii721vqj/Race.2.(2013).DvdRip.XviD.AC3.5.1CH.MSubs.2CD.[Team.Jaffa].sub.html
    Code:
    http://extabit.com/file/2da6esjakww9n/Race.2.(2013).DvdRip.XviD.AC3.5.1CH.MSubs.2CD.[Team.Jaffa].avi
    http://extabit.com/file/2da6esjaif34b/Race.2.(2013).DvdRip.XviD.AC3.5.1CH.MSubs.2CD.[Team.Jaffa].idx
    http://extabit.com/file/2da6esjaif68b/Race.2.(2013).DvdRip.XviD.AC3.5.1CH.MSubs.2CD.[Team.Jaffa].sub

  2. #2

    Default

    thanks.........!

 

 

Posting Permissions

  • You may not post new threads
  • You may not post replies
  • You may not post attachments
  • You may not edit your posts
  •