Results 1 to 1 of 1
  1. #1
    Hot Member www.desirulez.net
    Join Date
    Feb 2013
    Posts
    1,015

    Thumbs up Table No. 21 (2013)[email protected] [EXD Exclusive]

    Follow us on Social Media





    Table No. 21 (2013)[email protected] [EXD Exclusive]





    Rip Information

    Format : Matroska
    Format version : Version 4 / Version 2
    File size : 1.36 GiB
    Duration : 1h 46mn
    Overall bit rate : 1 838 Kbps
    Movie name : Table No. 21 (2013)[email protected] [EXD Exclusive]

    Video

    Format : AVC
    Format/Info : Advanced Video Codec
    Format profile : [email protected]
    Format settings, CABAC : Yes
    Format settings, ReFrames : 4 frames
    Codec ID : V_MPEG4/ISO/AVC
    Duration : 1h 46mn
    Bit rate : 1 389 Kbps
    Width : 1 280 pixels
    Height : 544 pixels
    Display aspect ratio : 2.35:1
    Frame rate mode : Constant
    Frame rate : 23.976 fps
    Color space : YUV
    Chroma subsampling : 4:2:0
    Bit depth : 8 bits
    Scan type : Progressive
    Bits/(Pixel*Frame) : 0.083
    Stream size : 1.01 GiB (74%)
    Title : [email protected]
    Writing library : x264 core 130 r2273 b3065e6

    Audio

    Format : AC-3
    Format/Info : Audio Coding 3
    Mode extension : CM (complete main)
    Format settings, Endianness : Big
    Codec ID : A_AC3
    Duration : 1h 46mn
    Bit rate mode : Constant
    Bit rate : 448 Kbps
    Channel(s) : 6 channels
    Channel positions : Front: L C R, Side: L R, LFE
    Sampling rate : 48.0 KHz
    Bit depth : 16 bits
    Compression mode : Lossy
    Delay relative to video : 500ms
    Stream size : 341 MiB (24%)
    Title : [email protected]
    Language : Hindi

    ==Team EXD Exclusive==
    Source Original DVD9

















    Code:
    http://superupl.com/ikxcguy08di1
    Code:
    http://uploaded.net/file/9poagevx/Table_No_21_2013-720p.DVDRip-x264.6Ch-By-Krtik_EXD_Exclusive.mkv
    Code:
    http://lumfile.com/ijk7rzp0d7vw/Table_No_21_2013-720p.DVDRip-x264.6Ch-By-Krtik_EXD_Exclusive.mkv.html
    Code:
    http://180upload.com/vfix6ie9pt8s

 

 

Posting Permissions

  • You may not post new threads
  • You may not post replies
  • You may not post attachments
  • You may not edit your posts
  •