Results 1 to 2 of 2
  1. #1
    Hot Member www.desirulez.net
    Join Date
    Feb 2013
    Posts
    1,015

    Thumbs up Haqeeqat 1995 DvDrip 1CD X264 AAC [RRG DBB][DADA]

    Follow us on Social Media





    Haqeeqat 1995 DvDrip 1CD X264 AAC [RRG DBB][DADA]





    Format : MP4 Video
    File size : 829 MiB
    Duration : 2h 44mn
    Overall bit rate : 705 Kbps


    Video
    Format : AVC
    Format/Info : Advanced Video Codec
    Format profile : [email protected]
    Format settings, CABAC : Yes
    Format settings, ReFrames : 3 frames
    Duration : 2h 44mn
    Bit rate : 568 Kbps
    Width : 640 pixels
    Height : 480 pixels
    Display aspect ratio : 4:3
    Frame rate mode : Constant
    Frame rate : 25.000 fps
    Color space : YUV
    Chroma subsampling : 4:2:0
    Bit depth : 8 bits
    Scan type : Progressive
    Bits/(Pixel*Frame) : 0.074
    Stream size : 668 MiB (81%)

    Audio
    Format : AAC
    Format/Info : Advanced Audio Codec
    Format version : Version 4
    Format profile : LC
    Format settings, SBR : No
    Duration : 2h 44mn
    Bit rate : 129 Kbps
    Channel(s) : 2 channels
    Channel positions : Front: L R
    Sampling rate : 44.1 KHz
    Bit depth : 16 bits
    Stream size : 151 MiB (18%)

    IMDB - http://www.imdb.com/title/tt0286672/

    Genres:
    Indian Cinema, Action & Adventure, Drama
    Language:
    Hindi
    Running time:
    2:44:25
    Released:
    Dec 20, 1995

    Cast & Crew
    Cast
    Ajay Devgn
    Tabu
    Aruna Irani
    Mohan Joshi
    Johnny Lever

    Directors
    Sandesh Kohli

    Producers
    N.R. Pachisia

    Writers
    Rajeev Kaul

    After her husband, Ravi Malhotra, is killed, Sudha lives the life of a widow with her brother, Mahesh, and Bhabhi, Kamini. A new tenant, Ajay, comes to her rescue when she is molested by Bhavani's brother, both fall in love and decide to get married. Kamini initially opposes this match, but subsequently relents and both get married. Shortly thereafter she gets pregnant and it is then she finds out that Ajay is not who he claims to be, and may have been responsible for killing her husband.











    Code:
    http://superupl.com/jpivzguutwcv
    Code:
    http://180upload.com/vm4r8h2u1w0b
    Code:
    http://lumfile.com/xtgb8tp2woze/Haqeeqat.1995.DvDrip.1CD.X264.AAC.RRG.DADA.mp4.html



  2. #2

    Default

    Hi friend thanks for send movies other thing is please can you send hindi movies send old hindi movies in 720p also and send with srt file please

 

 

Posting Permissions

  • You may not post new threads
  • You may not post replies
  • You may not post attachments
  • You may not edit your posts
  •