Results 1 to 1 of 1
  1. #1
    dR Rockers www.desirulez.net
    Join Date
    Jun 2011
    Posts
    2,793

    Thumbs up Naina 2005 - HDRip - x264 - 400MB [Horror] [Team ExDE$] 378MB

    Follow us on Social Media








    -= Info =-

    Format : AVI
    Format/Info : Audio Video Interleave
    File size : 378 MiB
    Duration : 1h 47mn
    Overall bit rate : 492 Kbps
    Writing library : VirtualDub build 32842/release

    Video
    ID : 0
    Format : x264
    Codec ID : x264
    Duration : 1h 47mn
    Bit rate : 351 Kbps
    Width : 720 pixels
    Height : 304 pixels
    Display aspect ratio : 2.35:1
    Frame rate : 25.000 fps
    Stream size : 270 MiB (71%)

    Audio
    ID : 1
    Format : AAC
    Format/Info : Advanced Audio Codec
    Format profile : LC
    Codec ID : FF
    Duration : 1h 47mn
    Bit rate : 128 Kbps
    Channel(s) : 2 channels
    Channel positions : Front: L R
    Sampling rate : 44.1 KHz
    Compression mode : Lossy
    Stream size : 98.3 MiB (26%)
    -= Screen Shoots =-










    Code:
    http://www.queenshare.com/5k4vyb8loz9n
    SPEEDSHARE

    Code:
    http://speedshare.eu/9yl1shdz1kou.html
    SECUREUPLOAD

    Code:
    http://www.secureupload.eu/nnfwvav09nyr/Naina378mb.avi


 

 

Posting Permissions

  • You may not post new threads
  • You may not post replies
  • You may not post attachments
  • You may not edit your posts
  •