Results 1 to 1 of 1
  1. #1
    Hot Member www.desirulez.net
    Join Date
    Feb 2013
    Posts
    1,015

    Thumbs up Aatmaa (2013) MC-DvDScr Upscaled 720p x264 AC3 1GB Exclusive

    Follow us on Social Media





    Aatmaa (2013) MC-DvDScr Upscaled 720p x264 AC3 1GB Exclusive



    General
    Unique ID : 238342998907579963313016134206710479 (0xB34F311DF0F19999988637A473D9F)
    Complete name : E:\Aatmaa.(2013).DvDScr.Rip.Upscaled.720p.x264.AC3.1GB_Exclusive.Release.By.Team.SSX.mkv
    Format : Matroska
    Format version : Version 4 / Version 2
    File size : 1.05 GiB
    Duration : 1h 34mn
    Overall bit rate : 1 592 Kbps
    Encoded date : UTC 2013-03-25 17:19:19
    Writing application : mkvmerge v6.1.0 ('Old Devil') built on Mar 2 2013 14:32:37
    Writing library : libebml v1.3.0 + libmatroska v1.4.0

    Video
    ID : 1
    Format : AVC
    Format/Info : Advanced Video Codec
    Format profile : [email protected]
    Format settings, CABAC : Yes
    Format settings, ReFrames : 4 frames
    Codec ID : V_MPEG4/ISO/AVC
    Duration : 1h 34mn
    Bit rate : 1 397 Kbps
    Width : 1 280 pixels
    Height : 544 pixels
    Display aspect ratio : 2.134
    Original display aspect ratio : 2.133
    Frame rate mode : Constant
    Frame rate : 29.970 fps
    Color space : YUV
    Chroma subsampling : 4:2:0
    Bit depth : 8 bits
    Scan type : Progressive
    Bits/(Pixel*Frame) : 0.067
    Stream size : 925 MiB (86%)
    Writing library : x264 core 130 r2273
    Language : Hindi
    Default : Yes
    Forced : No

    Audio
    ID : 2
    Format : AC-3
    Format/Info : Audio Coding 3
    Mode extension : CM (complete main)
    Format settings, Endianness : Big
    Codec ID : A_AC3
    Duration : 1h 34mn
    Bit rate mode : Constant
    Bit rate : 192 Kbps
    Channel(s) : 2 channels
    Channel positions : Front: L R
    Sampling rate : 48.0 KHz
    Bit depth : 16 bits
    Compression mode : Lossy
    Delay relative to video : -5ms
    Stream size : 130 MiB (12%)
    Language : Hindi
    Default : Yes
    Forced : No








    Code:
    http://lumfile.com/qhbimti62v4b/Aatmaa.(2013).DvDScr.Rip.Upscaled.720p.x264.AC3.1GB_Exclusive.mkv.html
    Code:
    http://ul.to/mbbf2l51
    Code:
    http://180upload.com/a7r6c8ml4sqq
    Code:
    http://superupl.com/9f5q9b0p7u00





 

 

Posting Permissions

  • You may not post new threads
  • You may not post replies
  • You may not post attachments
  • You may not edit your posts
  •