Results 1 to 1 of 1
  1. #1
    Hot Member www.desirulez.net
    Join Date
    Feb 2013
    Posts
    1,015

    Thumbs up Naina (2005) - HDRip - x264 - 400MB [Horror] [Team ExDE$]

    Follow us on Social Media





    Naina (2005) - HDRip - x264 - 400MB [Horror] [Team ExDE$]



    -= Info =-


    Complete name : Naina (2005) - HDRip - x264 - 400MB [Horror] [Team ExDE$].avi
    Format : AVI
    Format/Info : Audio Video Interleave
    File size : 378 MiB
    Duration : 1h 47mn
    Overall bit rate : 492 Kbps
    Writing library : VirtualDub build 32842/release

    Video
    ID : 0
    Format : x264
    Codec ID : x264
    Duration : 1h 47mn
    Bit rate : 351 Kbps
    Width : 720 pixels
    Height : 304 pixels
    Display aspect ratio : 2.35:1
    Frame rate : 25.000 fps
    Stream size : 270 MiB (71%)

    Audio
    ID : 1
    Format : AAC
    Format/Info : Advanced Audio Codec
    Format profile : LC
    Codec ID : FF
    Duration : 1h 47mn
    Bit rate : 128 Kbps
    Channel(s) : 2 channels
    Channel positions : Front: L R
    Sampling rate : 44.1 KHz
    Compression mode : Lossy
    Stream size : 98.3 MiB (26%)













    Code:
    http://180upload.com/7xo9nzjmg1tm
    Code:
    http://superupl.com/8e3cimivkzxi
    Code:
    http://lumfile.com/07olrdx2f75s/Naina_(2005)_-_HDRip_-_x264_-_400MB_%5BHorror%5D_%5BTeam_ExDE$%5D.avi.html
    Code:
    http://ul.to/gwkdqd8r


 

 

Posting Permissions

  • You may not post new threads
  • You may not post replies
  • You may not post attachments
  • You may not edit your posts
  •