Results 1 to 1 of 1
  1. #1
    dR Rockers www.desirulez.net
    Join Date
    Jun 2011
    Posts
    2,793

    Thumbs up Spanish Beauty - A Beautiful Wife (2010) DVDRip (Hindi) -=Rana.Aqib786=- 282MB

    Follow us on Social Media






    [18+] Spanish Beauty - A Beautiful Wife (2010) DVDRip (Hindi) -=Rana.Aqib786=- [ExDE$]





    Format : MPEG-4
    Format profile : Base Media / Version 2
    Codec ID : mp42
    File size : 282 MiB
    Duration : 1h 28mn
    Overall bit rate : 443 Kbps

    Format : AVC
    Format/Info : Advanced Video Codec
    Format profile : [email protected]
    Format settings, CABAC : No
    Format settings, ReFrames : 1 frame
    Codec ID : avc1
    Codec ID/Info : Advanced Video Coding
    Duration : 1h 28mn
    Bit rate : 345 Kbps
    Maximum bit rate : 1 577 Kbps
    Width : 640 pixels
    Height : 338 pixels
    Display aspect ratio : 1.893
    Frame rate mode : Constant
    Frame rate : 25.000 fps
    Bit depth : 8 bits
    Scan type : Progressive
    Bits/(Pixel*Frame) : 0.064
    Stream size : 219 MiB (78%)
    Tagged date : UTC 2013-02-18 23:41:18

    Audio
    ID : 2
    Format : AAC
    Format/Info : Advanced Audio Codec
    Format profile : LC
    Codec ID : 40
    Duration : 1h 28mn
    Bit rate mode : Variable
    Bit rate : 96.0 Kbps
    Maximum bit rate : 103 Kbps
    Channel(s) : 2 channels
    Channel positions : Front: L R
    Sampling rate : 44.1 KHz
    Compression mode : Lossy
    Stream size : 61.0 MiB (22%)












    Code:
    http://www.arabloads.com/103d1e4h682z/SpnishBeauty.mp4.html


 

 

Posting Permissions

  • You may not post new threads
  • You may not post replies
  • You may not post attachments
  • You may not edit your posts
  •