Results 1 to 1 of 1
  1. #1
    Hot Member www.desirulez.net
    Join Date
    Feb 2013
    Posts
    1,015

    Thumbs up Angoor (1982) 2CD DVDRip XviD Subs 900 MB

    Follow us on Social Media





    Angoor (1982) 2CD DVDRip XviD Subs 900 MB




    http://www.imdb.com/title/tt0215517/

    Format : AVI
    Format/Info : Audio Video Interleave
    File size : 927 MiB
    Duration : 2h 9mn
    Overall bit rate : 1 001 Kbps
    Movie name : Angoor
    Writing application : MEncoder dev-SVN-r21190-4.1.1
    Writing library : MPlayer

    Video
    ID : 0
    Format : MPEG-4 Visual
    Format profile : [email protected]
    Format settings, BVOP : No
    Format settings, QPel : No
    Format settings, GMC : No warppoints
    Format settings, Matrix : Default (H.263)
    Codec ID : DIVX
    Codec ID/Info : Project Mayo
    Codec ID/Hint : DivX 4
    Duration : 2h 9mn
    Bit rate : 859 Kbps
    Width : 480 pixels
    Height : 360 pixels
    Display aspect ratio : 4:3
    Frame rate : 29.970 fps
    Color space : YUV
    Chroma subsampling : 4:2:0
    Bit depth : 8 bits
    Scan type : Progressive
    Compression mode : Lossy
    Bits/(Pixel*Frame) : 0.166
    Stream size : 796 MiB (86%)
    Writing library : Lavc51.25.0

    Audio
    ID : 1
    Format : MPEG Audio
    Format version : Version 1
    Format profile : Layer 3
    Mode : Joint stereo
    Mode extension : MS Stereo
    Codec ID : 55
    Codec ID/Hint : MP3
    Duration : 2h 9mn
    Bit rate mode : Constant
    Bit rate : 128 Kbps
    Channel(s) : 2 channels
    Sampling rate : 48.0 KHz
    Compression mode : Lossy
    Stream size : 119 MiB (13%)
    Alignment : Aligned on interleaves
    Interleave, duration : 24 ms (0.72 video frame)
    Interleave, preload duration : 504 ms











    Code:
    http://superupl.com/hs5uua4w0h2a
    Code:
    http://180upload.com/qp5xb4w2mrx5
    Code:
    http://uptobox.com/bd2dys13ep5n
    Code:
    http://BillionUploads.com/biofogytxj18
    Code:
    http://lumfile.com/jkpwjhibd1kb/angoo.avi.html
    Code:
    http://ul.to/v90pd4ds



 

 

Posting Permissions

  • You may not post new threads
  • You may not post replies
  • You may not post attachments
  • You may not edit your posts
  •