Results 1 to 1 of 1
  1. #1
    Hot Member www.desirulez.net
    Join Date
    Feb 2013
    Posts
    1,015

    Thumbs up Race 2 (2013) DVDrip [For Smart Phones] mp4 - {Team ExDRS}

    Follow us on Social Media





    Race 2 (2013) DVDrip [For Smart Phones] mp4 - {Team ExDRS}

    Race 2 (2013)

    DVDrip

    [For Smart Phones]

    {Team ExDRS}




    INFO


    General
    Complete name : Race 2 (2013) DVDrip [For Smart Phones] mp4 - {Team ExDRS}.mp4
    Format : MPEG-4 (Smart Phones)
    Format profile : Base Media
    Codec ID : isom
    File size : 672 MiB
    Duration : 2h 25mn
    Overall bit rate : 645 Kbps
    Writing application : Lavf54.6.100

    Video
    ID : 1
    Format : AVC
    Format/Info : Advanced Video Codec
    Format profile : [email protected]
    Format settings, CABAC : No
    Format settings, ReFrames : 2 frames
    Codec ID : avc1
    Codec ID/Info : Advanced Video Coding
    Duration : 2h 25mn
    Bit rate mode : Variable
    Bit rate : 512 Kbps
    Width : 480 pixels
    Height : 320 pixels
    Display aspect ratio : 2.35:1
    Frame rate mode : Constant
    Frame rate : 25.000 fps
    Color space : YUV
    Chroma subsampling : 4:2:0
    Bit depth : 8 bits
    Scan type : Progressive
    Bits/(Pixel*Frame) : 0.133
    Stream size : 534 MiB (79%)
    Writing library : x264 core 119
    Language : Hindi

    Audio
    ID : 2
    Format : AAC
    Format/Info : Advanced Audio Codec
    Format version : Version 4
    Format profile : LC
    Format settings, SBR : No
    Codec ID : 40
    Duration : 2h 25mn
    Bit rate mode : Variable
    Bit rate : 127 Kbps
    Maximum bit rate : 128 Kbps
    Channel(s) : 2 channels
    Channel positions : Front: L R
    Sampling rate : 44.1 KHz
    Stream size : 133 MiB (20%)
    Language : Hindi













    Code:
    http://www.arabloads.com/zq54qctmdt98/Race_2_(2013)_DVDrip_[For_Smart_Phones]_mp4_-_{Team_ExDRS}.mp4.html


 

 

Posting Permissions

  • You may not post new threads
  • You may not post replies
  • You may not post attachments
  • You may not edit your posts
  •