Results 1 to 1 of 1
  1. #1
    dR Rockers www.desirulez.net
    Join Date
    Aug 2011
    Posts
    5,859

    Cool Race 2 (2013) - 720p - DVDRip - x264 - Msubs - Anon

    Follow us on Social Media











    Code:
    General
    Complete name                            : C:\Users\root\Downloads\Race2.2013.720p.x264.msubs-Anon\Race2.2013.720p.x264.esubs-Anon.mkv
    Format                                   : Matroska
    Format version                           : Version 2
    File size                                : 3.99 GiB
    Duration                                 : 2h 25mn
    Overall bit rate                         : 3 919 Kbps
    Encoded date                             : UTC 2013-03-20 05:11:54
    Writing application                      : mkvmerge v5.2.1 ('A Far Off Place') built on Jan  2 2012 23:21:10
    Writing library                          : libebml v1.2.3 + libmatroska v1.3.0
    
    Video
    ID                                       : 1
    Format                                   : AVC
    Format/Info                              : Advanced Video Codec
    Format profile                           : [email protected]
    Format settings, CABAC                   : Yes
    Format settings, ReFrames                : 4 frames
    Codec ID                                 : V_MPEG4/ISO/AVC
    Duration                                 : 2h 25mn
    Bit rate                                 : 3 475 Kbps
    Width                                    : 1 280 pixels
    Height                                   : 544 pixels
    Display aspect ratio                     : 2.35:1
    Frame rate mode                          : Constant
    Frame rate                               : 23.976 fps
    Color space                              : YUV
    Chroma subsampling                       : 4:2:0
    Bit depth                                : 8 bits
    Scan type                                : Progressive
    Bits/(Pixel*Frame)                       : 0.208
    Stream size                              : 3.46 GiB (87%)
    Writing library                          : x264 core 120 r2164 da19765
    Language                                 : English
    Default                                  : Yes
    Forced                                   : No
    
    Audio
    ID                                       : 2
    Format                                   : AC-3
    Format/Info                              : Audio Coding 3
    Mode extension                           : CM (complete main)
    Format settings, Endianness              : Big
    Codec ID                                 : A_AC3
    Duration                                 : 2h 25mn
    Bit rate mode                            : Constant
    Bit rate                                 : 448 Kbps
    Channel(s)                               : 6 channels
    Channel positions                        : Front: L C R, Side: L R, LFE
    Sampling rate                            : 48.0 KHz
    Bit depth                                : 16 bits
    Compression mode                         : Lossy
    Stream size                              : 467 MiB (11%)
    Default                                  : Yes
    Forced                                   : No







    SINGLE DIRECT FAST LINKS
    Code:
    http://extabit.com/file/2duchf1a9lu4t/Race2.2013.720p.x264.esubs-Anon.mkv
    Code:
    http://lumfile.com/c95xyolk9afc/Race2.2013.720p.x264.esubs-Anon.mkv.html

    1GB LINKS


    Code:
    http://lumfile.com/bi5mbocdrnss/Race2.2013.720p.x264.esubs-Anon.mkv.001.html
    http://lumfile.com/nc5z6r92x1om/Race2.2013.720p.x264.esubs-Anon.mkv.002.html
    http://lumfile.com/in6fds1yben0/Race2.2013.720p.x264.esubs-Anon.mkv.003.html
    http://lumfile.com/p5ena7opjq7c/Race2.2013.720p.x264.esubs-Anon.mkv.004.html
    http://lumfile.com/2uns740tshxr/Race2.2013.720p.x264.esubs-Anon.msubs.rar.html
    http://lumfile.com/j5r1vxylmtco/Race2.2013.720p.x264.esubs-Anon.srt.html

    Code:
    http://extabit.com/file/2duchf1a7440d/Race2.2013.720p.x264.esubs-Anon.mkv.001
    http://extabit.com/file/2duchf1a74dkd/Race2.2013.720p.x264.esubs-Anon.mkv.002
    http://extabit.com/file/2duchf1a74djh/Race2.2013.720p.x264.esubs-Anon.mkv.003
    http://extabit.com/file/2duchf1a74djx/Race2.2013.720p.x264.esubs-Anon.mkv.004
    http://extabit.com/file/2duchf1a74q8d/Race2.2013.720p.x264.esubs-Anon.msubs.rar
    http://extabit.com/file/2duchf1a74q8t/Race2.2013.720p.x264.esubs-Anon.srt

 

 

Posting Permissions

  • You may not post new threads
  • You may not post replies
  • You may not post attachments
  • You may not edit your posts
  •