Results 1 to 1 of 1
  1. #1

    Cool Race 2 (2013) - 720P - DvdRip - X264 - ESubs - Anon

    Follow us on Social Media











    General
    Complete name : C:\Users\root\Downloads\Race2.2013.720p.x264.msubs-Anon\Race2.2013.720p.x264.esubs-Anon.mkv
    Format : Matroska
    Format version : Version 2
    File size : 3.99 GiB
    Duration : 2h 25mn
    Overall bit rate : 3 919 Kbps
    Encoded date : UTC 2013-03-20 05:11:54
    Writing application : mkvmerge v5.2.1 ('A Far Off Place') built on Jan 2 2012 23:21:10
    Writing library : libebml v1.2.3 + libmatroska v1.3.0

    Video
    ID : 1
    Format : AVC
    Format/Info : Advanced Video Codec
    Format profile : [email protected]
    Format settings, CABAC : Yes
    Format settings, ReFrames : 4 frames
    Codec ID : V_MPEG4/ISO/AVC
    Duration : 2h 25mn
    Bit rate : 3 475 Kbps
    Width : 1 280 pixels
    Height : 544 pixels
    Display aspect ratio : 2.35:1
    Frame rate mode : Constant
    Frame rate : 23.976 fps
    Color space : YUV
    Chroma subsampling : 4:2:0
    Bit depth : 8 bits
    Scan type : Progressive
    Bits/(Pixel*Frame) : 0.208
    Stream size : 3.46 GiB (87%)
    Writing library : x264 core 120 r2164 da19765
    Language : English
    Default : Yes
    Forced : No

    Audio
    ID : 2
    Format : AC-3
    Format/Info : Audio Coding 3
    Mode extension : CM (complete main)
    Format settings, Endianness : Big
    Codec ID : A_AC3
    Duration : 2h 25mn
    Bit rate mode : Constant
    Bit rate : 448 Kbps
    Channel(s) : 6 channels
    Channel positions : Front: L C R, Side: L R, LFE
    Sampling rate : 48.0 KHz
    Bit depth : 16 bits
    Compression mode : Lossy
    Stream size : 467 MiB (11%)
    Default : Yes
    Forced : No


    Code:
    http://rapidgator.net/file/ca59c304622d6401e745c46865b4b804/Race2.2013.720p.x264.esubs-Anon.mkv.001.html
    http://rapidgator.net/file/bc17f08b1e76aa648f4c59e3991c0bac/Race2.2013.720p.x264.esubs-Anon.mkv.002.html
    http://rapidgator.net/file/1927c93821386daee132c279798d300f/Race2.2013.720p.x264.esubs-Anon.mkv.003.html
    http://rapidgator.net/file/b44206bc0633d68efb88a2c7c087a671/Race2.2013.720p.x264.esubs-Anon.mkv.004.html
    http://rapidgator.net/file/7531e14be15cea38eaa57e77ffa7d704/Race2.2013.720p.x264.esubs-Anon.mkv.005.html
    
    Subs:
    http://rapidgator.net/file/f3b7ce43ef67bdc4125b7d6140365242/Race2.2013.720p.x264.esubs-Anon.srt.html
    Code:
    http://ul.to/mmrdn0mw
    http://ul.to/bloax0bd
    http://ul.to/7lvr23tt
    http://ul.to/adwwny6g
    http://ul.to/gzaopnl4
    
    Subs:
    http://ul.to/wceaaznb
    Code:
    http://ultramegabit.com/file/details/qT0lcF84oJU
    http://ultramegabit.com/file/details/Bg8XVvOrM90
    http://ultramegabit.com/file/details/Lx42rYu3QQk
    http://ultramegabit.com/file/details/ufPwe_SSYNY
    http://ultramegabit.com/file/details/ExfYXSBU-Ao
    
    Subs:
    http://ultramegabit.com/file/details/SxzfBdKwu-U

 

 

Posting Permissions

  • You may not post new threads
  • You may not post replies
  • You may not post attachments
  • You may not edit your posts
  •