Results 1 to 7 of 7
  1. #1

    Default Harry Potter and the Half-Blood Prince | 2009 | TSRip | In Hindi | {MEDIAFIRE LINKS}

    Follow us on Social Media









    Video
    ID : 1
    Format : AVC
    Format/Info : Advanced Video Codec
    Format profile : [email protected]
    Format settings, CABAC : Yes
    Format settings, ReFrames : 8 frames
    Muxing mode : Container [email protected]
    Codec ID : V_MPEG4/ISO/AVC
    Duration : 2h 16mn
    Bit rate : 458 Kbps
    Nominal bit rate : 466 Kbps
    Width : 720 pixels
    Height : 280 pixels
    Display aspect ratio : 2.571
    Frame rate : 30.000 fps
    Resolution : 24 bits
    Colorimetry : 4:2:0
    Scan type : Progressive
    Bits/(Pixel*Frame) : 0.076
    Stream size : 448 MiB (89%)
    Writing library : x264 core 68 r1181M 49bf767



    Audio
    ID : 2
    Format : MPEG Audio
    Format version : Version 2
    Format profile : Layer 3
    Codec ID : A_MPEG/L3
    Codec ID/Hint : MP3
    Duration : 2h 16mn
    Bit rate mode : Constant
    Bit rate : 48.0 Kbps
    Channel(s) : 2 channels
    Sampling rate : 16.0 KHz
    Resolution : 16 bits
    Stream size : 47.0 MiB (9%)
    Writing library : LAME3.97 (beta)












    Code:
    http://www.mediafire.com/?zwkw5jmmtog
    http://www.mediafire.com/?mqe1oj1zjwz
    http://www.mediafire.com/?ww2wmuzdtmz
    http://www.mediafire.com/?jeyjymjmneu
    http://www.mediafire.com/?fyimnt2wwzy
    http://www.mediafire.com/?dwriwmhmd2z




    ()

  2. #2
    Banned www.desirulez.net
    Join Date
    Aug 2009
    Posts
    51

    T

    Default

    Thanks Man

  3. #3
    Administrator www.desirulez.netwww.desirulez.net
    Join Date
    Feb 2009
    Location
    Belgium
    Posts
    3,948

    T

    Default

    she is nt a man she is women









  4. #4
    YouR De$i RaPPeR www.desirulez.net
    Join Date
    Jun 2009
    Location
    Spain BCN (Barcelona)
    Posts
    3,272

    T

    Default

    she is not a MAN



    .~*\ .............~**~...~*\../`*~. ~**~-,
    .\.....\,.~*\/.... /\.....\... ..V...../ ...(_)...\
    ..\............ .\.....\/..../. \........ ./\......,.~*
    ....\,.~* ..`.-.,,.-`..\, ,./.....\..,,`.\






  5. #5
    New Arrivals
    Join Date
    Mar 2010
    Posts
    3

    T

    Default

    nice work bro...

  6. #6
    Administrator www.desirulez.net
    Join Date
    Feb 2010
    Posts
    239,832

    T

    Default

    not working

  7. #7
    Landed To DesiRulez www.desirulez.net
    Join Date
    Apr 2010
    Posts
    15

    T

    Default

    Links not working upload again

 

 

Posting Permissions

  • You may not post new threads
  • You may not post replies
  • You may not post attachments
  • You may not edit your posts
  •