Results 1 to 1 of 1
  1. #1

    Cool Special 26 (2013) - 1/3DvdRip - XviD - AC3 - MSubs [Team Jaffa]

    Follow us on Social Media








    General
    Format : AVI
    Format/Info : Audio Video Interleave
    File size : 1.45 GiB
    Duration : 2h 23mn
    Overall bit rate : 1 443 Kbps

    Video
    ID : 0
    Format : MPEG-4 Visual
    Format profile : Advanced [email protected]
    Format settings, BVOP : 2
    Format settings, QPel : No
    Format settings, GMC : No warppoints
    Format settings, Matrix : Default (H.263)
    Codec ID : XVID
    Codec ID/Hint : XviD
    Duration : 2h 23mn
    Bit rate : 1 212 Kbps
    Width : 720 pixels
    Height : 304 pixels
    Display aspect ratio : 2.35:1
    Frame rate : 23.976 fps
    Color space : YUV
    Chroma subsampling : 4:2:0
    Bit depth : 8 bits
    Scan type : Progressive
    Compression mode : Lossy
    Bits/(Pixel*Frame) : 0.231
    Stream size : 1.22 GiB (84%)
    Writing library : XviD 1.2.1 (UTC 2008-12-04)

    Audio
    ID : 1
    Format : AC-3
    Format/Info : Audio Coding 3
    Mode extension : CM (complete main)
    Format settings, Endianness : Big
    Codec ID : 2000
    Duration : 2h 23mn
    Bit rate mode : Constant
    Bit rate : 224 Kbps
    Channel(s) : 6 channels
    Channel positions : Front: L C R, Side: L R, LFE
    Sampling rate : 48.0 KHz
    Bit depth : 16 bits
    Compression mode : Lossy
    Stream size : 230 MiB (16%)
    Alignment : Aligned on interleaves
    Interleave, duration : 64 ms (1.53 video frames)
    Interleave, preload duration : 192 ms
    Title : AudioFile_80_new

    Subs: Arabic And English




    Code:
    http://rapidgator.net/file/079557f551f129e697ebb7e47623f5b9/Special_26_(2013)_DvdRip_XviD_AC3_MSubs_2CD_[Team_Jaffa].avi.html
    
    Subs:
    http://rapidgator.net/file/ff66e23b914c9167ab07fb248ed6db83/Special_26_(2013)_DvdRip_XviD_AC3_MSubs_2CD_[Team_Jaffa].idx.html
    http://rapidgator.net/file/ba091ab3bdc892513b3c9cd1e461eb45/Special_26_(2013)_DvdRip_XviD_AC3_MSubs_2CD_[Team_Jaffa].sub.html
    Code:
    http://datacloud.to/download/c3984fe37/special-26-2013-dvdrip-xvid-ac3-msubs-2cd-team-jaffa-avi
    
    Subs:
    http://datacloud.to/download/2ed56b048/special-26-2013-dvdrip-xvid-ac3-msubs-2cd-team-jaffa-idx
    http://datacloud.to/download/7f8feb55/special-26-2013-dvdrip-xvid-ac3-msubs-2cd-team-jaffa-sub

 

 

Posting Permissions

  • You may not post new threads
  • You may not post replies
  • You may not post attachments
  • You may not edit your posts
  •