Results 1 to 1 of 1
  1. #1
    Hot Member www.desirulez.net
    Join Date
    Feb 2013
    Posts
    1,015

    Thumbs up Mahabharat Aur Barbareek [2013].1CD.DVDRip. XviD.700 MB

    Follow us on Social Media





    Mahabharat Aur Barbareek [2013].1CD.DVDRip. XviD.700 MB



    Rip Information

    Format : AVI
    Format/Info : Audio Video Interleave
    File size : 704 MiB
    Duration : 2h 17mn
    Overall bit rate : 718 Kbps


    Video

    Format : MPEG-4 Visual
    Format profile : Advanced [email protected]
    Format settings, BVOP : 3
    Format settings, QPel : No
    Format settings, GMC : No warppoints
    Format settings, Matrix : Default (MPEG)
    Codec ID : XVID
    Codec ID/Hint : XviD
    Duration : 2h 17mn
    Bit rate : 582 Kbps
    Width : 688 pixels
    Height : 288 pixels
    Display aspect ratio : 2.40:1
    Frame rate : 25.000 fps
    Color space : YUV
    Chroma subsampling : 4:2:0
    Bit depth : 8 bits
    Scan type : Progressive
    Compression mode : Lossy
    Bits/(Pixel*Frame) : 0.117
    Stream size : 570 MiB (81%)
    Writing library : XviD 1.2.1 (UTC 2008-12


    Audio

    Format : AC-3
    Format/Info : Audio Coding 3
    Mode extension : CM (complete main)
    Format settings, Endianness : Big
    Codec ID : 2000
    Duration : 2h 17mn
    Bit rate mode : Constant
    Bit rate : 128 Kbps
    Channel(s) : 2 channels
    Channel positions : Front: L R
    Sampling rate : 48.0 KHz
    Bit depth : 16 bits
    Compression mode : Lossy
    Stream size : 125 MiB (18%)
    Alignment : Aligned on interleaves
    Interleave, duration : 64 ms (1.60 video frames)
    Title : [email protected]

















    Code:
    http://www.uptobox.com/va5k12pl4v6v
    Code:
    http://lumfile.com/z5ycfniuaeja/Mahabharat_Aur_Barbareek_5B20135D.1CD.DVDRip._XviD.By_Krtik_5BExD_ExclusivE5D.avi.html
    Code:
    http://180upload.com/ou77f9fkajbs
    Code:
    http://epicshare.net/u5lft9x21mnt
    Code:
    http://turbobit.net/s2fhvmdo3nrd.html
    Code:
    http://ul.to/6yshmdof
    Code:
    http://junocloud.me/ag7e4dvtosa3
    Code:
    http://upafile.com/ww5h40fl7gy3
    Code:
    http://www.putlocker.com/file/DF9BC25C9ACE168C

 

 

Posting Permissions

  • You may not post new threads
  • You may not post replies
  • You may not post attachments
  • You may not edit your posts
  •