Results 1 to 1 of 1
  1. #1

    Cool 3G (2013) - HDRip - X264 - 720P [DSG]

    Follow us on Social Media














    Note: Why To Download 1CD Rip When You Getting 720p HDRip in 1/3 DVD
    Source : M2TV [Thanks Man]
    Ripper: Ghanja
    Info:
    Format : Matroska
    Format version : Version 4 / Version 2
    File size : 1.41 GiB
    Duration : 2h 3mn
    Overall bit rate : 1 632 Kbps
    Encoded date : UTC 2013-03-16 13:02:07
    Writing application : mkvmerge v6.0.0 ('Coming Up For Air') built on Jan 20 2013 09:52:00
    Writing library : libebml v1.3.0 + libmatroska v1.4.0

    Video
    ID : 1
    Format : AVC
    Format/Info : Advanced Video Codec
    Format profile : [email protected]
    Format settings, CABAC : Yes
    Format settings, ReFrames : 4 frames
    Codec ID : V_MPEG4/ISO/AVC
    Duration : 2h 3mn
    Bit rate : 1 430 Kbps
    Width : 1 280 pixels
    Height : 544 pixels
    Display aspect ratio : 2.35:1
    Frame rate mode : Constant
    Frame rate : 24.000 fps
    Color space : YUV
    Chroma subsampling : 4:2:0
    Bit depth : 8 bits
    Scan type : Progressive
    Bits/(Pixel*Frame) : 0.086
    Stream size : 1.19 GiB (84%)
    Writing library : x264 core 129 r2245 bc13772
    Encoding settings : Ask Yourself
    Default : Yes
    Forced : No

    Audio
    ID : 2
    Format : AC-3
    Format/Info : Audio Coding 3
    Mode extension : CM (complete main)
    Format settings, Endianness : Big
    Codec ID : A_AC3
    Duration : 2h 3mn
    Bit rate mode : Constant
    Bit rate : 224 Kbps
    Channel(s) : 2 channels
    Channel positions : Front: L R
    Sampling rate : 48.0 KHz
    Bit depth : 16 bits
    Compression mode : Lossy
    Stream size : 198 MiB (14%)
    Default : Yes
    Forced : No


    Code:
    http://rapidgator.net/file/05cbeb3f3394218d22336074fe881f33/3G_(2013)_720p_HDRip_x264_AC3_-_[DSG].mkv.html
    
    http://datacloud.to/download/0ac11c7bd/3g-2013-720p-hdrip-x264-ac3-dsg-mkv

 

 

Posting Permissions

  • You may not post new threads
  • You may not post replies
  • You may not post attachments
  • You may not edit your posts
  •