Results 1 to 1 of 1
  1. #1

    Cool Special 26 (2013) - DvdRip - X264 - MSubs - 5.1CH - 720P [Team Jaffa]

    Follow us on Social Media








    General
    Format : Matroska
    Format version : Version 4 / Version 2
    File size : 2.20 GiB
    Duration : 2h 23mn
    Overall bit rate : 2 194 Kbps
    Writing application : mkvmerge v6.0.0 ('Coming Up For Air')
    Writing library : libebml v1.3.0 + libmatroska v1.4.0

    Video
    ID : 1
    Format : AVC
    Format/Info : Advanced Video Codec
    Format profile : [email protected]
    Format settings, CABAC : Yes
    Format settings, ReFrames : 4 frames
    Codec ID : V_MPEG4/ISO/AVC
    Duration : 2h 23mn
    Bit rate : 1 742 Kbps
    Width : 1 280 pixels
    Height : 544 pixels
    Display aspect ratio : 2.35:1
    Frame rate mode : Constant
    Frame rate : 23.976 fps
    Color space : YUV
    Chroma subsampling : 4:2:0
    Bit depth : 8 bits
    Scan type : Progressive
    Bits/(Pixel*Frame) : 0.104
    Stream size : 1.71 GiB (78%)
    Writing library : x264 core 129 r2245 bc13772
    Language : English
    Default : Yes
    Forced : No

    Audio
    ID : 2
    Format : AC-3
    Format/Info : Audio Coding 3
    Mode extension : CM (complete main)
    Format settings, Endianness : Big
    Codec ID : A_AC3
    Duration : 2h 23mn
    Bit rate mode : Constant
    Bit rate : 448 Kbps
    Channel(s) : 6 channels
    Channel positions : Front: L C R, Side: L R, LFE
    Sampling rate : 48.0 KHz
    Bit depth : 16 bits
    Compression mode : Lossy
    Stream size : 460 MiB (20%)
    Default : Yes
    Forced : No

    Text #1
    ID : 3
    Format : VobSub
    Muxing mode : zlib
    Codec ID : S_VOBSUB
    Codec ID/Info : The same subtitle format used on DVDs
    Language : English
    Default : Yes
    Forced : No

    Text #2
    ID : 4
    Format : VobSub
    Muxing mode : zlib
    Codec ID : S_VOBSUB
    Codec ID/Info : The same subtitle format used on DVDs
    Language : Arabic
    Default : No
    Forced : No




















    Code:
    http://rapidgator.net/file/a7e210de1a0b6282b3470a45225bffc8/Special_26_(2013)_DvdRip_X264_MSubs_5.1CH_720P_[Team_Jaffa].mkv.001.html
    http://rapidgator.net/file/01c1020562d820039d687915c7bf75d2/Special_26_(2013)_DvdRip_X264_MSubs_5.1CH_720P_[Team_Jaffa].mkv.002.html

 

 

Posting Permissions

  • You may not post new threads
  • You may not post replies
  • You may not post attachments
  • You may not edit your posts
  •