Results 1 to 1 of 1
  1. #1
    dR Rockers www.desirulez.net
    Join Date
    Aug 2011
    Posts
    5,859

    Cool Special 26 (2013) - 720p - DVDRip - x264 - ESubs - Anon

    Follow us on Social Media











    Code:
    General
    Complete name : C:\Users\root\Downloads\s26.2013.720p.x264.msubs-anon\s26.2013.720p.x264.esubs-anon.mkv
    Format : Matroska
    Format version : Version 2
    File size : 3.50 GiB
    Duration : 2h 23mn
    Overall bit rate : 3 487 Kbps
    Encoded date : UTC 2013-03-13 10:00:57
    Writing application : mkvmerge v5.6.0 ('Kenya Kane') built on May 27 2012 16:44:04
    Writing library : libebml v1.2.3 + libmatroska v1.3.0
    
    Video
    ID : 1
    Format : AVC
    Format/Info : Advanced Video Codec
    Format profile : [email protected]
    Format settings, CABAC : Yes
    Format settings, ReFrames : 4 frames
    Codec ID : V_MPEG4/ISO/AVC
    Duration : 2h 23mn
    Bit rate : 3 038 Kbps
    Width : 1 280 pixels
    Height : 544 pixels
    Display aspect ratio : 2.35:1
    Frame rate mode : Constant
    Frame rate : 23.976 fps
    Color space : YUV
    Chroma subsampling : 4:2:0
    Bit depth : 8 bits
    Scan type : Progressive
    Bits/(Pixel*Frame) : 0.182
    Stream size : 2.98 GiB (85%)
    Writing library : x264 core 125 r2200 999b753
    Language : English
    Default : Yes
    Forced : No
    
    Audio
    ID : 2
    Format : AC-3
    Format/Info : Audio Coding 3
    Mode extension : CM (complete main)
    Format settings, Endianness : Big
    Codec ID : A_AC3
    Duration : 2h 23mn
    Bit rate mode : Constant
    Bit rate : 448 Kbps
    Channel(s) : 6 channels
    Channel positions : Front: L C R, Side: L R, LFE
    Sampling rate : 48.0 KHz
    Bit depth : 16 bits
    Compression mode : Lossy
    Stream size : 460 MiB (13%)
    Default : Yes
    Forced : No







    SINGLE DIRECT FAST LINKS
    Code:
    http://extabit.com/file/2ducnrakiqmqh/s26.2013.720p.x264.msubs-anon.mkv
    Code:
    http://lumfile.com/u4ee44g8kmlq/s26.2013.720p.x264.msubs-anon.mkv.html

    1GB LINKS



    Code:
    http://lumfile.com/bqrql3m2bwc0/s26.2013.720p.x264.msubs-anon.mkv.001.html
    http://lumfile.com/t3euthrozpk0/s26.2013.720p.x264.msubs-anon.mkv.002.html
    http://lumfile.com/rup8i5yi97lx/s26.2013.720p.x264.msubs-anon.mkv.003.html
    http://lumfile.com/7zozp4ydzlpv/s26.2013.720p.x264.msubs-anon.mkv.004.html
    http://lumfile.com/1chfz3wpynp6/s26.2013.720p.x264.msubs-anon.rar.html
    http://lumfile.com/jb9o0p28or6f/s26.2013.720p.x264.msubs-anon.srt.html

    Code:
    http://extabit.com/file/2ducnrakiqmmx/s26.2013.720p.x264.msubs-anon.mkv.001
    http://extabit.com/file/2ducnrakiqjjt/s26.2013.720p.x264.msubs-anon.mkv.002
    http://extabit.com/file/2ducnrakiqjm1/s26.2013.720p.x264.msubs-anon.mkv.003
    http://extabit.com/file/2ducnrakiqmpl/s26.2013.720p.x264.msubs-anon.mkv.004
    http://extabit.com/file/2ducnrakjdgi1/s26.2013.720p.x264.msubs-anon.rar
    http://extabit.com/file/2ducnrakjdge1/s26.2013.720p.x264.msubs-anon.srt

 

 

Posting Permissions

  • You may not post new threads
  • You may not post replies
  • You may not post attachments
  • You may not edit your posts
  •