Results 1 to 1 of 1
  1. #1
    dR Rockers www.desirulez.net
    Join Date
    Aug 2011
    Posts
    5,859

    Cool Special 26 (2013) - 1.37GB - 1/3DVDRip - x264 - Msubs - Anon

    Follow us on Social Media











    Code:
    eneral
    Complete name                            : C:\Users\root\Downloads\s26.2013.2cd.x264.msubs-anon\s26.2013.2cd.x264.esubs-anon.mp4
    Format                                   : MPEG-4
    Format profile                           : Base Media
    Codec ID                                 : isom
    File size                                : 1.37 GiB
    Duration                                 : 2h 23mn
    Overall bit rate                         : 1 363 Kbps
    Encoded date                             : UTC 2013-03-13 10:01:46
    Tagged date                              : UTC 2013-03-13 10:01:46
    
    Video
    ID                                       : 1
    Format                                   : AVC
    Format/Info                              : Advanced Video Codec
    Format profile                           : [email protected]
    Format settings, CABAC                   : Yes
    Format settings, ReFrames                : 4 frames
    Codec ID                                 : avc1
    Codec ID/Info                            : Advanced Video Coding
    Duration                                 : 2h 23mn
    Bit rate                                 : 913 Kbps
    Maximum bit rate                         : 4 632 Kbps
    Width                                    : 720 pixels
    Height                                   : 304 pixels
    Display aspect ratio                     : 2.35:1
    Frame rate mode                          : Constant
    Frame rate                               : 23.976 fps
    Color space                              : YUV
    Chroma subsampling                       : 4:2:0
    Bit depth                                : 8 bits
    Scan type                                : Progressive
    Bits/(Pixel*Frame)                       : 0.174
    Stream size                              : 937 MiB (67%)
    Writing library                          : x264 core 120 r2164 da19765
    Encoded date                             : UTC 2013-03-13 07:40:12
    Tagged date                              : UTC 2013-03-13 10:03:50
    
    Audio
    ID                                       : 2
    Format                                   : AC-3
    Format/Info                              : Audio Coding 3
    Mode extension                           : CM (complete main)
    Format settings, Endianness              : Big
    Codec ID                                 : ac-3
    Duration                                 : 2h 23mn
    Bit rate mode                            : Constant
    Bit rate                                 : 448 Kbps
    Channel(s)                               : 6 channels
    Channel positions                        : Front: L C R, Side: L R, LFE
    Sampling rate                            : 48.0 KHz
    Bit depth                                : 16 bits
    Compression mode                         : Lossy
    Delay relative to video                  : 83ms
    Stream size                              : 460 MiB (33%)
    Encoded date                             : UTC 2013-03-13 10:02:56
    Tagged date                              : UTC 2013-03-13 10:03:50











    SINGLE DIRECT FAST LINKS

    Code:
    http://lumfile.com/m6cw7rtj3m5q/s26.2013.2cd.x264.msubs-anon.mp4.html
    http://lumfile.com/gyufejvpvzyg/s26.2013.2cd.x264.msubs-anon.srt.html

    Code:
    http://extabit.com/file/2ducnrakiqmo9/s26.2013.2cd.x264.msubs-anon.mp4
    http://extabit.com/file/2ducnrakjdgdl/s26.2013.2cd.x264.msubs-anon.srt

 

 

Posting Permissions

  • You may not post new threads
  • You may not post replies
  • You may not post attachments
  • You may not edit your posts
  •