Results 1 to 1 of 1
  1. #1
    dR Rockers www.desirulez.net
    Join Date
    Aug 2011
    Posts
    5,859

    Cool Matru ki Bijlee ka Mandola (2013) - BRRip - x264 - ESubs - 1GB - 720p - [Team Jaffa]

    Follow us on Social Media











    Code:
    General
    Format : Matroska
    Format version : Version 4 / Version 2
    File size : 1.01 GiB
    Duration : 2h 29mn
    Overall bit rate : 964 Kbps
    Writing application : mkvmerge v6.0.0 ('Coming Up For Air')
    Writing library : libebml v1.3.0 + libmatroska v1.4.0
    
    Video
    ID : 1
    Format : AVC
    Format/Info : Advanced Video Codec
    Format profile : [email protected]
    Format settings, CABAC : Yes
    Format settings, ReFrames : 4 frames
    Codec ID : V_MPEG4/ISO/AVC
    Duration : 2h 29mn
    Bit rate : 904 Kbps
    Width : 1 280 pixels
    Height : 544 pixels
    Display aspect ratio : 2.35:1
    Frame rate mode : Constant
    Frame rate : 23.976 fps
    Color space : YUV
    Chroma subsampling : 4:2:0
    Bit depth : 8 bits
    Scan type : Progressive
    Bits/(Pixel*Frame) : 0.054
    Stream size : 960 MiB (93%)
    Writing library : x264 core 129 r2245 bc13772
    Language : English
    Default : Yes
    Forced : No
    
    Audio
    ID : 2
    Format : MPEG Audio
    Format version : Version 2
    Format profile : Layer 3
    Mode : Joint stereo
    Mode extension : MS Stereo
    Codec ID : A_MPEG/L3
    Codec ID/Hint : MP3
    Duration : 2h 29mn
    Bit rate mode : Constant
    Bit rate : 48.0 Kbps
    Channel(s) : 2 channels
    Sampling rate : 22.05 KHz
    Compression mode : Lossy
    Stream size : 51.4 MiB (5%)
    Writing library : LAME3.99.5UUUUUULAME
    Default : Yes
    Forced : No
    
    Text
    ID : 3
    Format : UTF-8
    Codec ID : S_TEXT/UTF8
    Codec ID/Info : UTF-8 Plain Text
    Default : Yes
    Forced : No

















    SINGLE DIRECT FAST LINKS


    Code:
    http://lumfile.com/lbrzg0nomdsn/Matru.ki.Bijlee.ka.Mandola.(2013).BRRip.X264.ESubs.1GB.720P.[Team.Jaffa].mkv.html

    Code:
    http://extabit.com/file/2ducnrakhhux5/Matru.ki.Bijlee.ka.Mandola.(2013).BRRip.X264.ESubs.1GB.720P.[Team.Jaffa].mkv

 

 

Posting Permissions

  • You may not post new threads
  • You may not post replies
  • You may not post attachments
  • You may not edit your posts
  •