Results 1 to 1 of 1
  1. #1

    Cool Special 26 (2013) - 720P - DvdRip - X264 - ESubs - Anon

    Follow us on Social Media











    General
    Complete name : C:\Users\root\Downloads\s26.2013.720p.x264.msubs-anon\s26.2013.720p.x264.esubs-anon.mkv
    Format : Matroska
    Format version : Version 2
    File size : 3.50 GiB
    Duration : 2h 23mn
    Overall bit rate : 3 487 Kbps
    Encoded date : UTC 2013-03-13 10:00:57
    Writing application : mkvmerge v5.6.0 ('Kenya Kane') built on May 27 2012 16:44:04
    Writing library : libebml v1.2.3 + libmatroska v1.3.0

    Video
    ID : 1
    Format : AVC
    Format/Info : Advanced Video Codec
    Format profile : [email protected]
    Format settings, CABAC : Yes
    Format settings, ReFrames : 4 frames
    Codec ID : V_MPEG4/ISO/AVC
    Duration : 2h 23mn
    Bit rate : 3 038 Kbps
    Width : 1 280 pixels
    Height : 544 pixels
    Display aspect ratio : 2.35:1
    Frame rate mode : Constant
    Frame rate : 23.976 fps
    Color space : YUV
    Chroma subsampling : 4:2:0
    Bit depth : 8 bits
    Scan type : Progressive
    Bits/(Pixel*Frame) : 0.182
    Stream size : 2.98 GiB (85%)
    Writing library : x264 core 125 r2200 999b753
    Language : English
    Default : Yes
    Forced : No

    Audio
    ID : 2
    Format : AC-3
    Format/Info : Audio Coding 3
    Mode extension : CM (complete main)
    Format settings, Endianness : Big
    Codec ID : A_AC3
    Duration : 2h 23mn
    Bit rate mode : Constant
    Bit rate : 448 Kbps
    Channel(s) : 6 channels
    Channel positions : Front: L C R, Side: L R, LFE
    Sampling rate : 48.0 KHz
    Bit depth : 16 bits
    Compression mode : Lossy
    Stream size : 460 MiB (13%)
    Default : Yes
    Forced : No


    Code:
    http://rapidgator.net/file/e7edc3995c9da7b63d31b0f67369d684/s26.2013.720p.x264.esubs-anon.mkv.001.html
    http://rapidgator.net/file/1c2eb0aa6595f6d4c8baeb4014558c49/s26.2013.720p.x264.esubs-anon.mkv.002.html
    http://rapidgator.net/file/18468480eba42e8d5061ef3ced78711c/s26.2013.720p.x264.esubs-anon.mkv.003.html
    http://rapidgator.net/file/2e15c8f3c230f31ab6c9168da915879c/s26.2013.720p.x264.esubs-anon.mkv.004.html
    
    Subs:
    http://rapidgator.net/file/a29f38aa4fcae39c0645e47f3b5167d0/s26.2013.720p.x264.esubs-anon.srt.html
    Code:
    http://ul.to/ty87fx1s
    http://ul.to/r4yil75a
    http://ul.to/h9leoiyz
    http://ul.to/qf5fkkne
    
    Subs:
    http://ul.to/o08dqg9v
    Code:
    http://ultramegabit.com/file/details/aIBV7l3hJSQ
    http://ultramegabit.com/file/details/Ua92MCSRyD8
    http://ultramegabit.com/file/details/O8vAxTBOZ74
    http://ultramegabit.com/file/details/DOnrW8DQEkc
    
    Subs:
    http://ultramegabit.com/file/details/VFzKhxhx9b0

 

 

Posting Permissions

  • You may not post new threads
  • You may not post replies
  • You may not post attachments
  • You may not edit your posts
  •