Results 1 to 1 of 1
  1. #1
    dR Rockers www.desirulez.net
    Join Date
    Jul 2009
    Posts
    551

    T

    Default Taylor_Swift-Picture_To_Burn-X264-Dvdrip-Cassadee

    Follow us on Social Media







    Video Format : AVC Format/Info : Advanced Video Codec Format profile : [email protected] Format settings, CABAC : Yes Format settings, ReFrames : 2 frames Codec ID : avc1 Codec ID/Info : Advanced Video Coding Duration : 2mn 47s Bit rate mode : Variable Bit rate : 1 025 Kbps Maximum bit rate : 2 261 Kbps Width : 640 pixels Height : 352 pixels Display aspect ratio : 16/9 Frame rate mode : Constant Frame rate : 29.970 fps Resolution : 24 bits Colorimetry : 4:2:0 Scan type : Progressive Bits/(Pixel*Frame) : 0.152 Stream size : 20.5 MiB (89%) Audio Format : AAC Format/Info : Advanced Audio Codec Format version : Version 4 Format profile : LC Format settings, SBR : Yes Format settings, PS : Yes Codec ID : 40 Duration : 2mn 47s Bit rate mode : Variable Bit rate : 121 Kbps Maximum bit rate : 130 Kbps Channel(s) : 2 channels Sampling rate : 48.0 KHz Resolution : 16 bits Stream size : 2.42 MiB (11%)
    Code:
    http://rapidshare.com/files/260387395/Taylor_Swift-Picture_To_Burn-X264-Dvdrip-Cassadee.mp4

 

 

Posting Permissions

  • You may not post new threads
  • You may not post replies
  • You may not post attachments
  • You may not edit your posts
  •