Results 1 to 1 of 1
  1. #1

    Cool Main Krishna Hoon (2013) - 720P - DVDRip - X264 - AC3 - 6Ch - Subs [EXD Exclusive]

    Follow us on Social Media











    Rip Information

    Format : Matroska
    Format version : Version 4 / Version 2
    File size : 1.48 GiB
    Duration : 2h 2mn
    Overall bit rate : 1 718 Kbps
    Movie name : Main Krishna Hoon (2013)-720p.DVDRip-x264.AC3.6Ch-B

    Video

    Format : AVC
    Format/Info : Advanced Video Codec
    Format profile : [email protected]
    Format settings, CABAC : Yes
    Format settings, ReFrames : 4 frames
    Codec ID : V_MPEG4/ISO/AVC
    Duration : 2h 2mn
    Bit rate : 1 253 Kbps
    Width : 1 280 pixels
    Height : 544 pixels
    Display aspect ratio : 2.35:1
    Frame rate mode : Constant
    Frame rate : 29.970 fps
    Color space : YUV
    Chroma subsampling : 4:2:0
    Bit depth : 8 bits
    Scan type : Progressive
    Bits/(Pixel*Frame) : 0.060
    Stream size : 1.06 GiB (72%)
    Title : [email protected]
    Writing library : x264 core 129 r2245 bc13772

    Audio

    Codec ID : A_AC3
    Duration : 2h 2mn
    Bit rate mode : Constant
    Bit rate : 448 Kbps
    Channel(s) : 6 channels
    Channel positions : Front: L C R, Side: L R, LFE
    Sampling rate : 48.0 KHz
    Bit depth : 16 bits
    Compression mode : Lossy
    Stream size : 394 MiB (26%)
    Title : [email protected]
    Language : Hindi


    Code:
    http://filegag.com/iu9n55p1ct3f
    http://filegag.com/f4iic6jrnk2m
    
    Subs:
    http://filegag.com/snwje5qawt8i
    Code:
    http://ul.to/sot67z55
    http://ul.to/67ql2yqf
    
    Subs:
    http://ul.to/4cfg4n2q
    Code:
    http://rapidgator.net/file/992dd1b2b50f8d056f20f01328ad24fd/Main_Krishna_Hoon_(2013)[email protected]_[EXD_Exclusive].mkv.html
    
    Subs:
    http://rapidgator.net/file/e77430bc28940d407923bfccae686100/Main_Krishna_Hoon_(2013)[email protected]_[EXD_Exclusive].srt.html

 

 

Posting Permissions

  • You may not post new threads
  • You may not post replies
  • You may not post attachments
  • You may not edit your posts
  •