Results 1 to 1 of 1
  1. #1
    dR Rockers www.desirulez.net
    Join Date
    Aug 2011
    Posts
    5,859

    Cool Main Krishna Hoon (2013) -720p - DVDRip - x264 - AC3 - 6Ch - [EXD Exclusive]

    Follow us on Social Media











    Code:
    Rip Information
    
    Code  Code:
    
    Format                                   : Matroska
    Format version                           : Version 4 / Version 2
    File size                                : 1.48 GiB
    Duration                                 : 2h 2mn
    Overall bit rate                         : 1 718 Kbps
    Movie name                               : Main Krishna Hoon (2013)[email protected]
    
    Video
    
    Code  Code:
    
    Format                                   : AVC
    Format/Info                              : Advanced Video Codec
    Format profile                           : [email protected]
    Format settings, CABAC                   : Yes
    Format settings, ReFrames                : 4 frames
    Codec ID                                 : V_MPEG4/ISO/AVC
    Duration                                 : 2h 2mn
    Bit rate                                 : 1 253 Kbps
    Width                                    : 1 280 pixels
    Height                                   : 544 pixels
    Display aspect ratio                     : 2.35:1
    Frame rate mode                          : Constant
    Frame rate                               : 29.970 fps
    Color space                              : YUV
    Chroma subsampling                       : 4:2:0
    Bit depth                                : 8 bits
    Scan type                                : Progressive
    Bits/(Pixel*Frame)                       : 0.060
    Stream size                              : 1.06 GiB (72%)
    Title                                    : [email protected]
    Writing library                          : x264 core 129 r2245 bc13772
    
    Audio
    
    Code  Code:
    
    Codec ID                                 : A_AC3
    Duration                                 : 2h 2mn
    Bit rate mode                            : Constant
    Bit rate                                 : 448 Kbps
    Channel(s)                               : 6 channels
    Channel positions                        : Front: L C R, Side: L R, LFE
    Sampling rate                            : 48.0 KHz
    Bit depth                                : 16 bits
    Compression mode                         : Lossy
    Stream size                              : 394 MiB (26%)
    Title                                    : [email protected]
    Language                                 : Hindi
















    SINGLE DIRECT FAST LINKS


    Code:
    http://lumfile.com/6zow5ggd53tm/Main.Krishna.Hoon.(2013).[email protected][EXD.Exclusive].mkv.html
    http://lumfile.com/uddb7akmg5he/Main.Krishna.Hoon.(2013).[email protected][EXD.Exclusive].srt.html
    Code:
    http://extabit.com/file/2ducntoeblyck/Main.Krishna.Hoon.(2013).[email protected][EXD.Exclusive].mkv
    http://extabit.com/file/2ducntoec91o4/Main.Krishna.Hoon.(2013).[email protected][EXD.Exclusive].srt

 

 

Posting Permissions

  • You may not post new threads
  • You may not post replies
  • You may not post attachments
  • You may not edit your posts
  •