Results 1 to 1 of 1
  1. #1

    Cool Saheb Biwi Aur Gangster Returns (2013) - SCamRip - XviD - 1CD [Team Jaffa]

    Follow us on Social Media








    General
    Format : AVI
    Format/Info : Audio Video Interleave
    File size : 694 MiB
    Duration : 1h 51mn
    Overall bit rate : 871 Kbps

    Video
    ID : 0
    Format : MPEG-4 Visual
    Format profile : Advanced [email protected]
    Format settings, BVOP : 2
    Format settings, QPel : No
    Format settings, GMC : No warppoints
    Format settings, Matrix : Default (H.263)
    Codec ID : XVID
    Codec ID/Hint : XviD
    Duration : 1h 51mn
    Bit rate : 817 Kbps
    Width : 608 pixels
    Height : 272 pixels
    Display aspect ratio : 2.25:1
    Frame rate : 25.000 fps
    Color space : YUV
    Chroma subsampling : 4:2:0
    Bit depth : 8 bits
    Scan type : Progressive
    Compression mode : Lossy
    Bits/(Pixel*Frame) : 0.198
    Stream size : 651 MiB (94%)
    Writing library : XviD 1.2.1 (UTC 2008-12-04)

    Audio
    ID : 1
    Format : MPEG Audio
    Format version : Version 2
    Format profile : Layer 3
    Mode : Joint stereo
    Mode extension : MS Stereo
    Codec ID : 55
    Codec ID/Hint : MP3
    Duration : 1h 51mn
    Bit rate mode : Constant
    Bit rate : 48.0 Kbps
    Channel(s) : 2 channels
    Sampling rate : 22.05 KHz
    Compression mode : Lossy
    Stream size : 38.3 MiB (6%)
    Alignment : Aligned on interleaves
    Interleave, duration : 160 ms (4.00 video frames)
    Interleave, preload duration : 209 ms
    Title : audio
    Writing library : LAME3.99.5UUUUUULAME


















    Code:
    http://filegag.com/acx86s1i6mw4
    
    https://www.ultramegabit.com/file/details/6d416ayxbGg
    
    http://rapidgator.net/file/5af956048b95081d1484587496f32934/Saheb_Biwi_Aur_Gangster_Returns_(2013)_SCamRip_XviD_1CD_[Team_Jaffa].avi.html

 

 

Posting Permissions

  • You may not post new threads
  • You may not post replies
  • You may not post attachments
  • You may not edit your posts
  •