Results 1 to 1 of 1
  1. #1

    Cool Main Krishna Hoon (2013) - 1CD - DVDRip - Xvid - AC3 - ESub [EXD Exclusive]

    Follow us on Social Media














    Format : AVI
    Format/Info : Audio Video Interleave
    File size : 702 MiB
    Duration : 2h 2mn
    Overall bit rate : 799 Kbps

    Video

    Codec ID : XVID
    Codec ID/Hint : XviD
    Duration : 2h 2mn
    Bit rate : 662 Kbps
    Width : 688 pixels
    Height : 304 pixels
    Display aspect ratio : 2.25:1
    Frame rate : 29.970 fps
    Color space : YUV
    Chroma subsampling : 4:2:0
    Bit depth : 8 bits
    Scan type : Progressive
    Compression mode : Lossy
    Bits/(Pixel*Frame) : 0.106
    Stream size : 582 MiB (83%)
    Writing library : XviD 1.2.1 (UTC 2008-12-04)

    Audio

    Code:
    Format : AC-3
    Format/Info : Audio Coding 3
    Mode extension : CM (complete main)
    Format settings, Endianness : Big
    Codec ID : 2000
    Duration : 2h 2mn
    Bit rate mode : Constant
    Bit rate : 128 Kbps
    Channel(s) : 6 channels
    Channel positions : Front: L C R, Side: L R, LFE
    Sampling rate : 48.0 KHz
    Bit depth : 16 bits
    Compression mode : Lossy
    Stream size : 113 MiB (16%)
    Alignment : Aligned on interleaves
    Interleave, duration : 64 ms (1.92 video frames)
    Interleave, preload duration : 192 ms
    Title : [email protected]


    Code:
    http://filegag.com/1vvsyfu8h6vq
    
    http://datacloud.to/download/24909c9e/main-krishna-hoon-2013-1cd-dvdrip-x264-ac3-esub-by-k-rtik-exd-exclusive-avi
    
    https://www.ultramegabit.com/file/details/KEUlk0I8Q2E
    
    http://rapidgator.net/file/92e227e3c9a9e77a460878ad8b746421/Main_Krishna_Hoon_(2013)[email protected]_[EXD_Exclusive].avi.html

 

 

Posting Permissions

  • You may not post new threads
  • You may not post replies
  • You may not post attachments
  • You may not edit your posts
  •