Results 1 to 1 of 1
  1. #1
    Super Member www.desirulez.net
    Join Date
    Feb 2010
    Posts
    155

    Default Saheb Biwi Aur Gangster Returns 2013 Hindi (Audio Cleaned) - 1CD - ScamRip [Xvid - Mp3]

    Follow us on Social Media







    Code:
    General
    Format : AVI
    Format/Info : Audio Video Interleave
    File size : 694 MiB
    Duration : 1h 48mn
    Overall bit rate : 891 Kbps
    Video #0
    ID : 0
    Format : MPEG-4 Visual
    Format profile : Advanced [email protected]
    Format settings, BVOP : 2
    Format settings, QPel : Yes
    Format settings, GMC : No warppoints
    Format settings, Matrix : Default (H.263)
    Codec ID : XVID
    Codec ID/Hint : XviD
    Duration : 1h 48mn
    Bit rate : 804 Kbps
    Width : 624 pixels
    Height : 304 pixels
    Frame rate : 29.970 fps
    Color space : YUV
    Chroma subsampling : 4:2:0
    Bit depth : 8 bits
    Scan type : Progressive
    Compression mode : Lossy
    Bits/(Pixel*Frame) : 0.141
    Stream size : 626 MiB (90%)
    
    Audio #1
    ID : 1
    Format : MPEG Audio
    Format version : Version 1
    Format profile : Layer 3
    Mode : Joint stereo
    Mode extension : MS Stereo
    Codec ID : 55
    Codec ID/Hint : MP3
    Duration : 1h 48mn
    Bit rate mode : Constant
    Bit rate : 80.0 Kbps
    Channel(s) : 2 channels
    Sampling rate : 32.0 KHz
    Compression mode : Lossy
    Stream size : 62.3 MiB (9%)






    SINGLE LINKS

    Code:
    http://extabit.com/file/2d9pzbqtrgpvo
    
    http://uploaded.net/file/suh9soms
    
    http://lumfile.com/54n82ihhy88n/'Saheb_2C_Biwi_Aur_Gangster_Returns_'_2013_(Audio_Cleaned)_-_1CD_-_ScamRip__5BXvid_-_Mp3_5D.avi.html

 

 

Posting Permissions

  • You may not post new threads
  • You may not post replies
  • You may not post attachments
  • You may not edit your posts
  •