Results 1 to 1 of 1
  1. #1
    Hot Member www.desirulez.net
    Join Date
    Feb 2013
    Posts
    1,015

    Thumbs up Jigar 1992 {BRRip} {x264} {Hindi} {rdx004} {DMRG}

    Follow us on Social Media





    Jigar 1992 {BRRip} {x264} {Hindi} {rdx004} {DMRG}




    Title: Jigar 1992 {BRRip} {x264} {Hindi} {rdx004} {DMRG}

    Original Name: Jigar

    Release Date: 1992

    Genre: Action | Drama | Romance |

    STORY:
    Simpleton Raj Verma alias Raju return home one
    day to find that his sister is publicly raped by gangster
    Beharry and one of his wrestlers also Raj's childhood
    friend Duryodhan. When Raj intervene he is beaten, publicly
    humiliated and left for dead, and then he is taken to the
    hospital and survive by a miracle. After recovery Raj swears
    to take revenge on Duryodhan and Beharry and is trained to
    become an expert wrestler by a man named Baba Thakur. But
    the question remains will Raj be able to cope with these
    trainings and if he does will he be able to take on
    Duryodhan who is already an expert in this field?

    CAST:
    Ajay Devgan,
    Karisma Kapoor,
    Ajit,
    Ishrat Ali,
    Arjun,
    Salim Khan Ding Dong,
    Gulshan Grover,
    Aruna Irani,
    Jamuna,
    Goga Kapoor,
    Hussain Khan,
    Madhavi,
    Yunus Parvez,
    Paresh Rawal,
    Asha Sharma,
    Gurubachan Singh,
    Sudhir,
    Brijesh Tiwari

    Rip Information
    Code:
    General
    Format : Matroska
    Format version : Version 4 / Version 2
    File size : 689 MiB
    Duration : 2h 52mn
    Overall bit rate : 559 Kbps
    Encoded date : UTC 2013-03-01 07:00:41

    Video
    Code:
    ID : 1
    Format : AVC
    Format/Info : Advanced Video Codec
    Format profile : [email protected]
    Format settings, CABAC : Yes
    Format settings, ReFrames : 6 frames
    Codec ID : V_MPEG4/ISO/AVC
    Duration : 2h 52mn
    Bit rate : 526 Kbps
    Width : 640 pixels
    Height : 272 pixels
    Display aspect ratio : 16:9
    Original display aspect ratio : 2.35:1
    Frame rate mode : Constant
    Frame rate : 23.976 fps
    Color space : YUV
    Chroma subsampling : 4:2:0
    Bit depth : 8 bits
    Scan type : Progressive
    Bits/(Pixel*Frame) : 0.126
    Stream size : 636 MiB (92%)
    Writing library : x264 core 112
    Default : Yes
    Forced : No
    Color primaries : BT.601 NTSC
    Transfer characteristics : BT.709
    Matrix coefficients : BT.601






    Audio
    Code:
    ID : 2
    Format : MPEG Audio
    Format version : Version 2
    Format profile : Layer 3
    Codec ID : A_MPEG/L3
    Codec ID/Hint : MP3
    Duration : 2h 52mn
    Bit rate mode : Constant
    Bit rate : 32.0 Kbps
    Channel(s) : 2 channels
    Sampling rate : 16.0 KHz
    Compression mode : Lossy
    Stream size : 39.4 MiB (6%)
    Writing library : LAMELAME
    Default : Yes
    Forced : No

    Subtitle
    Code:
    ID : 4
    Format : UTF-8
    Codec ID : S_TEXT/UTF8
    Codec ID/Info : UTF-8 Plain Text
    Language : English
    Default : Yes
    Forced : No







    Code:
    http://lumfile.com/7p66gdhaaq9u/Jigar_1992_BRRip_x264_Hindi_rdx004_DMRG_BY.SM.mkv.html
    Code:
    http://www.uploadcore.com/d301g3pnlxid
    Code:
    http://180upload.com/q31mbp6jpufj


 

 

Posting Permissions

  • You may not post new threads
  • You may not post replies
  • You may not post attachments
  • You may not edit your posts
  •