Results 1 to 1 of 1
  1. #1
    dR Contributor www.desirulez.net
    Join Date
    Jul 2012
    Posts
    795

    Cool ROH.11th.Anniversary.iPPV.x264-WYWTV

    Follow us on Social Media






    ROH.11th.Anniversary.iPPV.x264-WYWTV










    Code:
    General 
    Complete name                            : ROH.11th.Anniversary.iPPV.x264-WYWTV.mp4 
    Format                                   : MPEG-4 
    Format profile                           : Base Media 
    Codec ID                                 : isom 
    File size                                : 1.23 GiB 
    Duration                                 : 3h 14mn 
    Overall bit rate mode                    : Variable 
    Overall bit rate                         : 901 Kbps 
    Encoded date                             : UTC 2013-03-06 07:21:21 
    Tagged date                              : UTC 2013-03-06 07:21:21 
    Writing application                      : Lavf51.12.1 
     
    Video 
    ID                                       : 1 
    Format                                   : AVC 
    Format/Info                              : Advanced Video Codec 
    Format profile                           : [email protected] 
    Format settings, CABAC                   : No 
    Format settings, ReFrames                : 2 frames 
    Format settings, GOP                     : M=1, N=12 
    Codec ID                                 : avc1 
    Codec ID/Info                            : Advanced Video Coding 
    Duration                                 : 3h 14mn 
    Bit rate                                 : 768 Kbps 
    Width                                    : 720 pixels 
    Height                                   : 576 pixels 
    Display aspect ratio                     : 4:3 
    Frame rate mode                          : Constant 
    Frame rate                               : 29.970 fps 
    Standard                                 : NTSC 
    Color space                              : YUV 
    Chroma subsampling                       : 4:2:0 
    Bit depth                                : 8 bits 
    Scan type                                : Progressive 
    Bits/(Pixel*Frame)                       : 0.062 
    Stream size                              : 1.05 GiB (85%) 
    Encoded date                             : UTC 2013-03-06 07:21:21 
    Tagged date                              : UTC 2013-03-06 07:21:21 
    Color primaries                          : BT.601 NTSC 
    Transfer characteristics                 : BT.601 
    Matrix coefficients                      : BT.601 
     
    Audio 
    ID                                       : 2 
    Format                                   : AAC 
    Format/Info                              : Advanced Audio Codec 
    Format profile                           : LC 
    Codec ID                                 : 40 
    Duration                                 : 3h 14mn 
    Bit rate mode                            : Variable 
    Bit rate                                 : 128 Kbps 
    Channel(s)                               : 2 channels 
    Channel positions                        : Front: L R 
    Sampling rate                            : 48.0 KHz 
    Compression mode                         : Lossy 
    Stream size                              : 178 MiB (14%) 
    Encoded date                             : UTC 2013-03-06 07:21:21 
    Tagged date                              : UTC 2013-03-06 07:21:21





    UL
    Code:
    http://uploaded.net/file/smghfx77/ROH.11th.Anniversary.iPPV.x264-WYWTV.mp4
    ............
    http://uploaded.net/file/ydzplmbs/ROH.11th.Anniversary.iPPV.x264-WYWTV.part1.rar
    http://uploaded.net/file/mglqjbe7/ROH.11th.Anniversary.iPPV.x264-WYWTV.part2.rar
    TurboBit
    Code:
    http://turbobit.net/kztievghn46p/ROH.11th.Anniversary.iPPV.x264-WYWTV.part1.rar.html
    http://turbobit.net/t9a4ft2w4dxu/ROH.11th.Anniversary.iPPV.x264-WYWTV.part2.rar.html



 

 

Posting Permissions

  • You may not post new threads
  • You may not post replies
  • You may not post attachments
  • You may not edit your posts
  •