Results 1 to 1 of 1
  1. #1

    Cool Bhoot Returns (2012) - DvdRip - XviD - 5.1CH - ESubs - 1CD [Team Jaffa]

    Follow us on Social Media








    General
    Format : AVI
    Format/Info : Audio Video Interleave
    File size : 698 MiB
    Duration : 1h 24mn
    Overall bit rate : 1 155 Kbps

    Video
    ID : 0
    Format : MPEG-4 Visual
    Format profile : Advanced [email protected]
    Format settings, BVOP : 2
    Format settings, QPel : No
    Format settings, GMC : No warppoints
    Format settings, Matrix : Default (H.263)
    Codec ID : XVID
    Codec ID/Hint : XviD
    Duration : 1h 24mn
    Bit rate : 922 Kbps
    Width : 640 pixels
    Height : 288 pixels
    Display aspect ratio : 2.222
    Frame rate : 29.970 fps
    Color space : YUV
    Chroma subsampling : 4:2:0
    Bit depth : 8 bits
    Scan type : Progressive
    Compression mode : Lossy
    Bits/(Pixel*Frame) : 0.167
    Stream size : 557 MiB (80%)
    Writing library : XviD 1.2.1 (UTC 2008-12-04)

    Audio
    ID : 1
    Format : AC-3
    Format/Info : Audio Coding 3
    Mode extension : CM (complete main)
    Format settings, Endianness : Big
    Codec ID : 2000
    Duration : 1h 24mn
    Bit rate mode : Constant
    Bit rate : 224 Kbps
    Channel(s) : 6 channels
    Channel positions : Front: L C R, Side: L R, LFE
    Sampling rate : 48.0 KHz
    Bit depth : 16 bits
    Compression mode : Lossy
    Stream size : 135 MiB (19%)
    Alignment : Aligned on interleaves
    Interleave, duration : 64 ms (1.92 video frames)
    Interleave, preload duration : 192 ms
    Title : AudioFile_80_new

    Subs: English
















    Code:
    http://filegag.com/z4agj2mbyj19
    
    Subs:
    http://filegag.com/q4d28g7cawf1
    Code:
    http://datacloud.to/download/ddb18aac0/bhoot-returns-2012-dvdrip-xvid-5-1ch-esubs-1cd-team-jaffa-avi
    
    Subs:
    http://datacloud.to/download/924820b87/bhoot-returns-2012-dvdrip-xvid-5-1ch-esubs-1cd-team-jaffa-rar
    Code:
    http://rapidgator.net/file/82659598/Bhoot_Returns_(2012)_DvdRip_XviD_5.1CH_ESubs_1CD_[Team_Jaffa].avi.html
    
    Subs:
    http://rapidgator.net/file/82659096/Bhoot_Returns_(2012)_DvdRip_XviD_5.1CH_ESubs_1CD_[Team_Jaffa].rar.html

 

 

Posting Permissions

  • You may not post new threads
  • You may not post replies
  • You may not post attachments
  • You may not edit your posts
  •