Results 1 to 1 of 1
  1. #1

    Cool I, Me Aur Main (2013) - DvdScrRip - XviD - Esubs - 1CD [Team Jaffa]

    Follow us on Social Media








    General
    Format : AVI
    Format/Info : Audio Video Interleave
    File size : 695 MiB
    Duration : 1h 42mn
    Overall bit rate : 945 Kbps

    Video
    ID : 0
    Format : MPEG-4 Visual
    Format profile : Advanced [email protected]
    Format settings, BVOP : 2
    Format settings, QPel : No
    Format settings, GMC : No warppoints
    Format settings, Matrix : Default (H.263)
    Codec ID : XVID
    Codec ID/Hint : XviD
    Duration : 1h 42mn
    Bit rate : 891 Kbps
    Width : 624 pixels
    Height : 272 pixels
    Display aspect ratio : 2.25:1
    Frame rate : 23.976 fps
    Color space : YUV
    Chroma subsampling : 4:2:0
    Bit depth : 8 bits
    Scan type : Progressive
    Compression mode : Lossy
    Bits/(Pixel*Frame) : 0.219
    Stream size : 655 MiB (94%)
    Writing library : XviD 1.2.1 (UTC 2008-12-04)

    Audio
    ID : 1
    Format : MPEG Audio
    Format version : Version 2
    Format profile : Layer 3
    Mode : Joint stereo
    Mode extension : MS Stereo
    Codec ID : 55
    Codec ID/Hint : MP3
    Duration : 1h 42mn
    Bit rate mode : Constant
    Bit rate : 48.0 Kbps
    Channel(s) : 2 channels
    Sampling rate : 22.05 KHz
    Compression mode : Lossy
    Stream size : 35.3 MiB (5%)
    Alignment : Aligned on interleaves
    Interleave, duration : 167 ms (4.00 video frames)
    Interleave, preload duration : 209 ms
    Title : audio
    Writing library : LAME×_÷×k¥²pŸ‰ÄTÄFc

    Subs: English
























    Code:
    http://filegag.com/og3w1stbf3ww
    
    Subs:
    http://filegag.com/56enozistrho
    Code:
    http://ul.to/n9ryqkhk
    
    Subs:
    http://ul.to/k5tt3b9h
    Code:
    http://rapidgator.net/file/82400890/I,_Me_Aur_Main_(2013)_DvdScrRip_XviD_Esubs_1CD_[Team_Jaffa].avi.html
    
    Subs:
    http://rapidgator.net/file/82400667/I,_Me_Aur_Main_(2013)_DvdScrRip_XviD_Esubs_1CD_[Team_Jaffa].rar.html

 

 

Posting Permissions

  • You may not post new threads
  • You may not post replies
  • You may not post attachments
  • You may not edit your posts
  •